<?xml version="1.0" standalone="no"?>
<!DOCTYPE svg PUBLIC "-//W3C//DTD SVG 1.1//EN" "http://www.w3.org/Graphics/SVG/1.1/DTD/svg11.dtd" >
<svg xmlns="http://www.w3.org/2000/svg" xmlns:xlink="http://www.w3.org/1999/xlink" version="1.1">
<metadata>
Created by FontForge 20190801 at Tue Jun 16 20:59:27 2020
 By Jimmy Wärting
Copyright 2011 The Mulish Project Authors (github.com/googlefonts/mulish)
</metadata>
<defs>
<font id="Mulish-SemiBold" horiz-adv-x="0" >
  <font-face 
    font-family="Mulish SemiBold"
    font-weight="600"
    font-stretch="normal"
    units-per-em="1000"
    panose-1="0 0 0 0 0 0 0 0 0 0"
    ascent="800"
    descent="-200"
    x-height="503"
    cap-height="712"
    bbox="-205 -273 1302 1089"
    underline-thickness="50"
    underline-position="-125"
    unicode-range="U+000D-FB02"
  />
<missing-glyph horiz-adv-x="500" 
d="M50 -216h400v952h-400v-952zM100 -166v852h300v-852h-300z" />
    <glyph glyph-name="fi" unicode="fi" horiz-adv-x="597" 
d="M414 729h119v-108h-119v108zM524 504v-504h-101v426h-417v78h518zM104 0v564q0 63 19.5 101t64 56t121.5 18h34v-76h-25q-47 0 -71.5 -8.5t-33 -33t-8.5 -73.5v-548h-101z" />
    <glyph glyph-name="fl" unicode="fl" horiz-adv-x="599" 
d="M6 426v78h316v-78h-316zM338 647q-28 8 -51 8t-42 -8.5t-30 -29.5t-11 -57v-560h-101v568q0 85 42.5 128.5t119.5 43.5q19 0 37 -2t36 -8v-83zM424 0v736h101v-736h-101z" />
    <glyph glyph-name=".notdef" horiz-adv-x="500" 
d="M50 -216h400v952h-400v-952zM100 -166v852h300v-852h-300z" />
    <glyph glyph-name="A" unicode="A" horiz-adv-x="741" 
d="M115 0h-105l317 712h87l317 -712h-104l-271 634h32zM147 176l38 82h369l37 -82h-444z" />
    <glyph glyph-name="Aacute" unicode="&#xc1;" horiz-adv-x="741" 
d="M115 0h-105l317 712h87l317 -712h-104l-271 634h32zM147 176l38 82h369l37 -82h-444zM403 773h-67l102 154h104z" />
    <glyph glyph-name="Abreve" unicode="&#x102;" horiz-adv-x="741" 
d="M115 0h-105l317 712h87l317 -712h-104l-271 634h32zM147 176l38 82h369l37 -82h-444zM370 784q-56 0 -101.5 25t-67.5 83l56 24q22 -39 50.5 -52t62.5 -13t62 13t50 52l56 -24q-23 -58 -68 -83t-100 -25z" />
    <glyph glyph-name="uni1EAE" unicode="&#x1eae;" horiz-adv-x="741" 
d="M115 0h-105l317 712h87l317 -712h-104l-271 634h32zM147 176l38 82h369l37 -82h-444zM370 768q-56 0 -101.5 25t-67.5 83l49 21q22 -38 53.5 -53.5t66.5 -15.5t66 15.5t53 53.5l49 -21q-23 -58 -68 -83t-100 -25zM402 878h-65l101 142h99z" />
    <glyph glyph-name="uni1EB6" unicode="&#x1eb6;" horiz-adv-x="741" 
d="M115 0h-105l317 712h87l317 -712h-104l-271 634h32zM147 176l38 82h369l37 -82h-444zM317 -87h107v-102h-107v102zM370 784q-56 0 -101.5 25t-67.5 83l56 24q22 -39 50.5 -52t62.5 -13t62 13t50 52l56 -24q-23 -58 -68 -83t-100 -25z" />
    <glyph glyph-name="uni1EB0" unicode="&#x1eb0;" horiz-adv-x="741" 
d="M115 0h-105l317 712h87l317 -712h-104l-271 634h32zM147 176l38 82h369l37 -82h-444zM370 768q-56 0 -101 25t-68 83l49 21q22 -38 53.5 -53.5t66.5 -15.5t66 15.5t53 53.5l49 -21q-22 -58 -67.5 -83t-100.5 -25zM337 878l-135 142h99l101 -142h-65z" />
    <glyph glyph-name="uni1EB2" unicode="&#x1eb2;" horiz-adv-x="741" 
d="M115 0h-105l317 712h87l317 -712h-104l-271 634h32zM147 176l38 82h369l37 -82h-444zM370 768q-56 0 -101 25t-68 83l49 21q22 -38 53.5 -53.5t66.5 -15.5t66 15.5t53 53.5l49 -21q-22 -58 -67.5 -83t-100.5 -25zM400 887v-9h-60v18q0 17 10 26t23.5 14.5t23.5 9.5t10 12
t-9.5 12.5t-29.5 4.5q-13 0 -27.5 -2.5t-32.5 -8.5l-16 44q18 8 40 13t46 5q48 0 74.5 -17.5t26.5 -45.5q0 -19 -12 -29t-27.5 -16t-27.5 -12.5t-12 -18.5z" />
    <glyph glyph-name="uni1EB4" unicode="&#x1eb4;" horiz-adv-x="741" 
d="M115 0h-105l317 712h87l317 -712h-104l-271 634h32zM147 176l38 82h369l37 -82h-444zM370 768q-56 0 -101 25t-68 83l49 21q22 -38 53.5 -53.5t66.5 -15.5t66 15.5t53 53.5l49 -21q-22 -58 -67.5 -83t-100.5 -25zM203 923q0 31 12.5 54.5t34 36.5t49.5 13q27 0 52 -11.5
t47 -23t41 -11.5q22 0 34 12.5t12 30.5h51q0 -30 -12.5 -53.5t-34 -37t-49.5 -13.5q-27 0 -52 12t-47 23.5t-41 11.5q-22 0 -34 -12.5t-12 -31.5h-51z" />
    <glyph glyph-name="Acircumflex" unicode="&#xc2;" horiz-adv-x="741" 
d="M115 0h-105l317 712h87l317 -712h-104l-271 634h32zM147 176l38 82h369l37 -82h-444zM299 773h-85l124 154h63l124 -154h-85l-70 99z" />
    <glyph glyph-name="uni1EA4" unicode="&#x1ea4;" horiz-adv-x="741" 
d="M115 0h-105l317 712h87l317 -712h-104l-271 634h32zM147 176l38 82h369l37 -82h-444zM299 773h-85l124 146h63l124 -146h-85l-70 92zM514 878h-56l86 142h97z" />
    <glyph glyph-name="uni1EAC" unicode="&#x1eac;" horiz-adv-x="741" 
d="M115 0h-105l317 712h87l317 -712h-104l-271 634h32zM147 176l38 82h369l37 -82h-444zM317 -87h107v-102h-107v102zM299 773h-85l124 154h63l124 -154h-85l-70 99z" />
    <glyph glyph-name="uni1EA6" unicode="&#x1ea6;" horiz-adv-x="741" 
d="M115 0h-105l317 712h87l317 -712h-104l-271 634h32zM147 176l38 82h369l37 -82h-444zM299 773h-85l124 146h63l124 -146h-85l-70 92zM501 878l-116 142h96l76 -142h-56z" />
    <glyph glyph-name="uni1EA8" unicode="&#x1ea8;" horiz-adv-x="741" 
d="M115 0h-105l317 712h87l317 -712h-104l-271 634h32zM147 176l38 82h369l37 -82h-444zM299 773h-85l124 146h63l124 -146h-85l-70 92zM517 887v-9h-60v18q0 17 10 26t23 14.5t23.5 9.5t10.5 12t-9.5 12.5t-29.5 4.5q-13 0 -28 -2.5t-32 -8.5l-16 44q18 8 40 13t46 5
q48 0 75 -17.5t27 -45.5q0 -19 -12 -29t-28 -16t-28 -12.5t-12 -18.5z" />
    <glyph glyph-name="uni1EAA" unicode="&#x1eaa;" horiz-adv-x="741" 
d="M115 0h-105l317 712h87l317 -712h-104l-271 634h32zM147 176l38 82h369l37 -82h-444zM299 773h-85l124 146h63l124 -146h-85l-70 92zM203 934q0 30 12.5 53t34 35.5t49.5 12.5q27 0 52 -9.5t47 -20t41 -10.5q22 0 34 12t12 29h51q0 -29 -12.5 -52t-34 -36.5t-49.5 -13.5
q-27 0 -52 10.5t-47 20.5t-41 10q-22 0 -34 -12t-12 -29h-51z" />
    <glyph glyph-name="uni0200" unicode="&#x200;" horiz-adv-x="741" 
d="M115 0h-105l317 712h87l317 -712h-104l-271 634h32zM147 176l38 82h369l37 -82h-444zM406 773l-99 154h80l72 -154h-53zM280 773l-99 154h79l73 -154h-53z" />
    <glyph glyph-name="Adieresis" unicode="&#xc4;" horiz-adv-x="741" 
d="M115 0h-105l317 712h87l317 -712h-104l-271 634h32zM147 176l38 82h369l37 -82h-444zM407 900h104v-99h-104v99zM228 900h104v-99h-104v99z" />
    <glyph glyph-name="uni1EA0" unicode="&#x1ea0;" horiz-adv-x="741" 
d="M115 0h-105l317 712h87l317 -712h-104l-271 634h32zM147 176l38 82h369l37 -82h-444zM317 -87h107v-102h-107v102z" />
    <glyph glyph-name="Agrave" unicode="&#xc0;" horiz-adv-x="741" 
d="M115 0h-105l317 712h87l317 -712h-104l-271 634h32zM147 176l38 82h369l37 -82h-444zM336 773l-139 154h104l102 -154h-67z" />
    <glyph glyph-name="uni1EA2" unicode="&#x1ea2;" horiz-adv-x="741" 
d="M115 0h-105l317 712h87l317 -712h-104l-271 634h32zM147 176l38 82h369l37 -82h-444zM400 784v-11h-60v19q0 17 10 27t23.5 16t23.5 12t10 14q0 9 -9.5 14t-29.5 5q-13 0 -27.5 -2.5t-32.5 -9.5l-16 46q18 8 40 12.5t46 4.5q48 0 74.5 -18t26.5 -46q0 -20 -12 -31
t-27.5 -18t-27.5 -14.5t-12 -19.5z" />
    <glyph glyph-name="uni0202" unicode="&#x202;" horiz-adv-x="741" 
d="M115 0h-105l317 712h87l317 -712h-104l-271 634h32zM147 176l38 82h369l37 -82h-444zM370 917q55 0 100.5 -25.5t67.5 -82.5l-56 -24q-22 38 -50 51.5t-62 13.5t-62.5 -13.5t-50.5 -51.5l-56 24q23 57 68 82.5t101 25.5z" />
    <glyph glyph-name="Amacron" unicode="&#x100;" horiz-adv-x="741" 
d="M115 0h-105l317 712h87l317 -712h-104l-271 634h32zM147 176l38 82h369l37 -82h-444zM216 815v71h307v-71h-307z" />
    <glyph glyph-name="Aogonek" unicode="&#x104;" horiz-adv-x="741" 
d="M147 176l38 82h369l37 -82h-444zM740 -119l17 -55q-19 -10 -42 -16t-48 -6q-54 0 -88 30t-34 77q0 43 27 76.5t77 48.5l-22 -36l-271 634h32l-273 -634h-105l317 712h87l317 -712h-28q-42 0 -63.5 -22t-21.5 -53q0 -29 17.5 -44.5t47.5 -15.5q13 0 27.5 4t29.5 12z" />
    <glyph glyph-name="Aring" unicode="&#xc5;" horiz-adv-x="741" 
d="M371 680q-44 0 -74 29t-30 73q0 43 30 73t74 30q43 0 74 -30t31 -73q0 -44 -31 -73t-74 -29zM371 733q21 0 34 14t13 35t-13 35t-34 14t-34 -14t-13 -35t13 -35t34 -14zM115 0h-105l317 712h87l317 -712h-104l-271 634h32zM147 176l38 82h369l37 -82h-444z" />
    <glyph glyph-name="Aringacute" unicode="&#x1fa;" horiz-adv-x="741" 
d="M10 0l317 712h87l317 -712h-104l-271 634h32l-273 -634h-105zM147 176l38 82h369l37 -82h-444zM371 680q-44 0 -74 29t-30 73q0 43 30 73t74 30q43 0 74 -30t31 -73q0 -44 -31 -73t-74 -29zM371 733q21 0 34 14t13 35t-13 35t-34 14t-34 -14t-13 -35t13 -35t34 -14z
M453 824l-47 31l92 96h106z" />
    <glyph glyph-name="Atilde" unicode="&#xc3;" horiz-adv-x="741" 
d="M115 0h-105l317 712h87l317 -712h-104l-271 634h32zM147 176l38 82h369l37 -82h-444zM203 790q0 62 27 93.5t69 31.5q27 0 52 -14t47 -28.5t41 -14.5q22 0 34 15.5t12 38.5h51q0 -62 -27 -93.5t-69 -31.5q-27 0 -52 14t-47 28t-41 14q-22 0 -34 -15.5t-12 -37.5h-51z" />
    <glyph glyph-name="AE" unicode="&#xc6;" horiz-adv-x="1004" 
d="M-10 0l437 712h530v-84h-502l28 14l-381 -642h-112zM142 176l38 82h381l21 -82h-440zM556 0l-55 666h93l50 -582h313v-84h-401zM568 320v84h369v-84h-369z" />
    <glyph glyph-name="AEacute" unicode="&#x1fc;" horiz-adv-x="1004" 
d="M-10 0l437 712h530v-84h-502l28 14l-381 -642h-112zM142 176l38 82h381l21 -82h-440zM556 0l-55 666h93l50 -582h313v-84h-401zM568 320v84h369v-84h-369zM538 773h-67l102 154h104z" />
    <glyph glyph-name="B" unicode="B" horiz-adv-x="685" 
d="M83 0v712h298q109 0 171 -49t62 -137q0 -61 -33.5 -103.5t-92.5 -60.5v8q68 -14 106 -60t38 -116q0 -93 -63.5 -143.5t-177.5 -50.5h-308zM185 83h196q78 0 114.5 28t36.5 89q0 60 -37 90t-114 30h-196v-237zM185 403h179q76 0 113 29t37 86q0 56 -37 83.5t-113 27.5
h-179v-226z" />
    <glyph glyph-name="C" unicode="C" horiz-adv-x="684" 
d="M396 -8q-104 0 -180 44t-116.5 126.5t-40.5 194.5t40.5 193.5t116.5 125.5t180 44q72 0 134.5 -22t106.5 -65l-36 -77q-50 41 -98.5 59.5t-105.5 18.5q-110 0 -171 -71.5t-61 -205.5t60.5 -206.5t171.5 -72.5q57 0 105.5 18.5t98.5 59.5l36 -77q-44 -43 -106.5 -65
t-134.5 -22z" />
    <glyph glyph-name="Cacute" unicode="&#x106;" horiz-adv-x="684" 
d="M396 -8q-104 0 -180 44t-116.5 126.5t-40.5 194.5t40.5 193.5t116.5 125.5t180 44q72 0 134.5 -22t106.5 -65l-36 -77q-50 41 -98.5 59.5t-105.5 18.5q-110 0 -171 -71.5t-61 -205.5t60.5 -206.5t171.5 -72.5q57 0 105.5 18.5t98.5 59.5l36 -77q-44 -43 -106.5 -65
t-134.5 -22zM425 773h-67l102 154h104z" />
    <glyph glyph-name="Ccaron" unicode="&#x10c;" horiz-adv-x="684" 
d="M396 -8q-104 0 -180 44t-116.5 126.5t-40.5 194.5t40.5 193.5t116.5 125.5t180 44q72 0 134.5 -22t106.5 -65l-36 -77q-50 41 -98.5 59.5t-105.5 18.5q-110 0 -171 -71.5t-61 -205.5t60.5 -206.5t171.5 -72.5q57 0 105.5 18.5t98.5 59.5l36 -77q-44 -43 -106.5 -65
t-134.5 -22zM462 927h85l-124 -154h-63l-124 154h85l71 -100z" />
    <glyph glyph-name="Ccedilla" unicode="&#xc7;" horiz-adv-x="684" 
d="M396 -8q-104 0 -180 44t-116.5 126.5t-40.5 194.5t40.5 193.5t116.5 125.5t180 44q72 0 134.5 -22t106.5 -65l-36 -77q-50 41 -98.5 59.5t-105.5 18.5q-110 0 -171 -71.5t-61 -205.5t60.5 -206.5t171.5 -72.5q57 0 105.5 18.5t98.5 59.5l36 -77q-44 -43 -106.5 -65
t-134.5 -22zM386 -196q-21 0 -46 4.5t-45 14.5l13 48q22 -8 40.5 -11t35.5 -3q26 0 40 8.5t14 23.5q0 25 -35 25q-12 0 -23 -2t-20 -6l-20 17l12 97h64l-9 -74l-29 4q13 4 26 6.5t25 2.5q32 0 55.5 -17.5t23.5 -52.5q0 -36 -31.5 -60.5t-90.5 -24.5z" />
    <glyph glyph-name="uni1E08" unicode="&#x1e08;" horiz-adv-x="684" 
d="M396 -8q-104 0 -180 44t-116.5 126.5t-40.5 194.5t40.5 193.5t116.5 125.5t180 44q72 0 134.5 -22t106.5 -65l-36 -77q-50 41 -98.5 59.5t-105.5 18.5q-110 0 -171 -71.5t-61 -205.5t60.5 -206.5t171.5 -72.5q57 0 105.5 18.5t98.5 59.5l36 -77q-44 -43 -106.5 -65
t-134.5 -22zM386 -196q-21 0 -46 4.5t-45 14.5l13 48q22 -8 40.5 -11t35.5 -3q26 0 40 8.5t14 23.5q0 25 -35 25q-12 0 -23 -2t-20 -6l-20 17l12 97h64l-9 -74l-29 4q13 4 26 6.5t25 2.5q32 0 55.5 -17.5t23.5 -52.5q0 -36 -31.5 -60.5t-90.5 -24.5zM425 773h-67l102 154
h104z" />
    <glyph glyph-name="Ccircumflex" unicode="&#x108;" horiz-adv-x="684" 
d="M396 -8q-104 0 -180 44t-116.5 126.5t-40.5 194.5t40.5 193.5t116.5 125.5t180 44q72 0 134.5 -22t106.5 -65l-36 -77q-50 41 -98.5 59.5t-105.5 18.5q-110 0 -171 -71.5t-61 -205.5t60.5 -206.5t171.5 -72.5q57 0 105.5 18.5t98.5 59.5l36 -77q-44 -43 -106.5 -65
t-134.5 -22zM321 773h-85l124 154h63l124 -154h-85l-70 99z" />
    <glyph glyph-name="Cdotaccent" unicode="&#x10a;" horiz-adv-x="684" 
d="M396 -8q-104 0 -180 44t-116.5 126.5t-40.5 194.5t40.5 193.5t116.5 125.5t180 44q72 0 134.5 -22t106.5 -65l-36 -77q-50 41 -98.5 59.5t-105.5 18.5q-110 0 -171 -71.5t-61 -205.5t60.5 -206.5t171.5 -72.5q57 0 105.5 18.5t98.5 59.5l36 -77q-44 -43 -106.5 -65
t-134.5 -22zM333 904h117v-107h-117v107z" />
    <glyph glyph-name="D" unicode="D" horiz-adv-x="753" 
d="M83 0v712h250q115 0 196 -41.5t123.5 -121t42.5 -192.5q0 -114 -43 -193.5t-124 -121.5t-195 -42h-250zM186 86h140q131 0 197 68t66 203q0 269 -263 269h-140v-540z" />
    <glyph glyph-name="uni01C4" unicode="&#x1c4;" horiz-adv-x="1340" 
d="M83 0v712h250q115 0 196 -41.5t123.5 -121t42.5 -192.5q0 -114 -43 -193.5t-124 -121.5t-195 -42h-250zM186 86h140q131 0 197 68t66 203q0 269 -263 269h-140v-540zM785 0v76l419 594l-2 -43h-417v85h507v-75l-420 -595l2 43h428v-85h-517zM1108 927h85l-124 -154h-63
l-124 154h85l71 -100z" />
    <glyph glyph-name="Eth" unicode="&#xd0;" horiz-adv-x="772" 
d="M10 320v81h387v-81h-387zM101 0v712h250q114 0 195 -41.5t124 -121t43 -192.5q0 -114 -42.5 -193.5t-123.5 -121.5t-196 -42h-250zM205 86h140q131 0 196.5 68t65.5 203q0 269 -262 269h-140v-540z" />
    <glyph glyph-name="Dcaron" unicode="&#x10e;" horiz-adv-x="753" 
d="M83 0v712h250q115 0 196 -41.5t123.5 -121t42.5 -192.5q0 -114 -43 -193.5t-124 -121.5t-195 -42h-250zM186 86h140q131 0 197 68t66 203q0 269 -263 269h-140v-540zM446 927h85l-124 -154h-63l-124 154h85l71 -100z" />
    <glyph glyph-name="Dcroat" unicode="&#x110;" horiz-adv-x="772" 
d="M10 320v81h387v-81h-387zM101 0v712h250q114 0 195 -41.5t124 -121t43 -192.5q0 -114 -42.5 -193.5t-123.5 -121.5t-196 -42h-250zM205 86h140q131 0 196.5 68t65.5 203q0 269 -262 269h-140v-540z" />
    <glyph glyph-name="uni1E0C" unicode="&#x1e0c;" horiz-adv-x="753" 
d="M83 0v712h250q115 0 196 -41.5t123.5 -121t42.5 -192.5q0 -114 -43 -193.5t-124 -121.5t-195 -42h-250zM186 86h140q131 0 197 68t66 203q0 269 -263 269h-140v-540zM322 -87h107v-102h-107v102z" />
    <glyph glyph-name="uni1E0E" unicode="&#x1e0e;" horiz-adv-x="753" 
d="M83 0v712h250q115 0 196 -41.5t123.5 -121t42.5 -192.5q0 -114 -43 -193.5t-124 -121.5t-195 -42h-250zM186 86h140q131 0 197 68t66 203q0 269 -263 269h-140v-540zM222 -173v69h307v-69h-307z" />
    <glyph glyph-name="uni01C5" unicode="&#x1c5;" horiz-adv-x="1274" 
d="M83 0v712h250q115 0 196 -41.5t123.5 -121t42.5 -192.5q0 -114 -43 -193.5t-124 -121.5t-195 -42h-250zM186 86h140q131 0 197 68t66 203q0 269 -263 269h-140v-540zM802 0v70l328 389l11 -33h-330v78h412v-71l-327 -389l-9 34h347v-78h-432zM1088 774h87l-122 -205h-67
l-122 205h87l69 -138z" />
    <glyph glyph-name="E" unicode="E" horiz-adv-x="591" 
d="M83 0v712h462v-83h-360v-225h340v-84h-340v-237h360v-83h-462z" />
    <glyph glyph-name="Eacute" unicode="&#xc9;" horiz-adv-x="591" 
d="M83 0v712h462v-83h-360v-225h340v-84h-340v-237h360v-83h-462zM362 773h-67l102 154h104z" />
    <glyph glyph-name="Ebreve" unicode="&#x114;" horiz-adv-x="591" 
d="M83 0v712h462v-83h-360v-225h340v-84h-340v-237h360v-83h-462zM329 784q-56 0 -101.5 25t-67.5 83l56 24q22 -39 50.5 -52t62.5 -13t62 13t50 52l56 -24q-23 -58 -68 -83t-100 -25z" />
    <glyph glyph-name="Ecaron" unicode="&#x11a;" horiz-adv-x="591" 
d="M83 0v712h462v-83h-360v-225h340v-84h-340v-237h360v-83h-462zM399 927h85l-124 -154h-63l-124 154h85l71 -100z" />
    <glyph glyph-name="uni0228" unicode="&#x228;" horiz-adv-x="591" 
d="M83 0v712h462v-83h-360v-225h340v-84h-340v-237h360v-83h-462zM324 -196q-21 0 -46 4.5t-45 14.5l13 48q22 -8 40.5 -11t35.5 -3q26 0 40 8.5t14 23.5q0 25 -35 25q-12 0 -23 -2t-20 -6l-20 17l12 97h64l-9 -74l-29 4q13 4 26 6.5t25 2.5q32 0 55.5 -17.5t23.5 -52.5
q0 -36 -31.5 -60.5t-90.5 -24.5z" />
    <glyph glyph-name="uni1E1C" unicode="&#x1e1c;" horiz-adv-x="591" 
d="M83 0v712h462v-83h-360v-225h340v-84h-340v-237h360v-83h-462zM324 -196q-21 0 -46 4.5t-45 14.5l13 48q22 -8 40.5 -11t35.5 -3q26 0 40 8.5t14 23.5q0 25 -35 25q-12 0 -23 -2t-20 -6l-20 17l12 97h64l-9 -74l-29 4q13 4 26 6.5t25 2.5q32 0 55.5 -17.5t23.5 -52.5
q0 -36 -31.5 -60.5t-90.5 -24.5zM329 784q-56 0 -101.5 25t-67.5 83l56 24q22 -39 50.5 -52t62.5 -13t62 13t50 52l56 -24q-23 -58 -68 -83t-100 -25z" />
    <glyph glyph-name="Ecircumflex" unicode="&#xca;" horiz-adv-x="591" 
d="M83 0v712h462v-83h-360v-225h340v-84h-340v-237h360v-83h-462zM258 773h-85l124 154h63l124 -154h-85l-70 99z" />
    <glyph glyph-name="uni1EBE" unicode="&#x1ebe;" horiz-adv-x="591" 
d="M83 0v712h462v-83h-360v-225h340v-84h-340v-237h360v-83h-462zM258 773h-85l124 146h63l124 -146h-85l-70 92zM473 878h-56l86 142h97z" />
    <glyph glyph-name="uni1EC6" unicode="&#x1ec6;" horiz-adv-x="591" 
d="M83 0v712h462v-83h-360v-225h340v-84h-340v-237h360v-83h-462zM275 -87h107v-102h-107v102zM258 773h-85l124 154h63l124 -154h-85l-70 99z" />
    <glyph glyph-name="uni1EC0" unicode="&#x1ec0;" horiz-adv-x="591" 
d="M83 0v712h462v-83h-360v-225h340v-84h-340v-237h360v-83h-462zM258 773h-85l124 146h63l124 -146h-85l-70 92zM460 878l-116 142h96l76 -142h-56z" />
    <glyph glyph-name="uni1EC2" unicode="&#x1ec2;" horiz-adv-x="591" 
d="M83 0v712h462v-83h-360v-225h340v-84h-340v-237h360v-83h-462zM258 773h-85l124 146h63l124 -146h-85l-70 92zM476 887v-9h-60v18q0 17 10 26t23 14.5t23.5 9.5t10.5 12t-9.5 12.5t-29.5 4.5q-13 0 -28 -2.5t-32 -8.5l-16 44q18 8 40 13t46 5q48 0 75 -17.5t27 -45.5
q0 -19 -12 -29t-28 -16t-28 -12.5t-12 -18.5z" />
    <glyph glyph-name="uni1EC4" unicode="&#x1ec4;" horiz-adv-x="591" 
d="M83 0v712h462v-83h-360v-225h340v-84h-340v-237h360v-83h-462zM258 773h-85l124 146h63l124 -146h-85l-70 92zM162 934q0 30 12.5 53t34 35.5t49.5 12.5q27 0 52 -9.5t47 -20t41 -10.5q22 0 34 12t12 29h51q0 -29 -12.5 -52t-34 -36.5t-49.5 -13.5q-27 0 -52 10.5
t-47 20.5t-41 10q-22 0 -34 -12t-12 -29h-51z" />
    <glyph glyph-name="uni0204" unicode="&#x204;" horiz-adv-x="591" 
d="M83 0v712h462v-83h-360v-225h340v-84h-340v-237h360v-83h-462zM365 773l-99 154h80l72 -154h-53zM239 773l-99 154h79l73 -154h-53z" />
    <glyph glyph-name="Edieresis" unicode="&#xcb;" horiz-adv-x="591" 
d="M83 0v712h462v-83h-360v-225h340v-84h-340v-237h360v-83h-462zM366 900h104v-99h-104v99zM187 900h104v-99h-104v99z" />
    <glyph glyph-name="Edotaccent" unicode="&#x116;" horiz-adv-x="591" 
d="M83 0v712h462v-83h-360v-225h340v-84h-340v-237h360v-83h-462zM270 904h117v-107h-117v107z" />
    <glyph glyph-name="uni1EB8" unicode="&#x1eb8;" horiz-adv-x="591" 
d="M83 0v712h462v-83h-360v-225h340v-84h-340v-237h360v-83h-462zM275 -87h107v-102h-107v102z" />
    <glyph glyph-name="Egrave" unicode="&#xc8;" horiz-adv-x="591" 
d="M83 0v712h462v-83h-360v-225h340v-84h-340v-237h360v-83h-462zM295 773l-139 154h104l102 -154h-67z" />
    <glyph glyph-name="uni1EBA" unicode="&#x1eba;" horiz-adv-x="591" 
d="M83 0v712h462v-83h-360v-225h340v-84h-340v-237h360v-83h-462zM359 784v-11h-60v19q0 17 10 27t23.5 16t23.5 12t10 14q0 9 -9.5 14t-29.5 5q-13 0 -27.5 -2.5t-32.5 -9.5l-16 46q18 8 40 12.5t46 4.5q48 0 74.5 -18t26.5 -46q0 -20 -12 -31t-27.5 -18t-27.5 -14.5
t-12 -19.5z" />
    <glyph glyph-name="uni0206" unicode="&#x206;" horiz-adv-x="591" 
d="M83 0v712h462v-83h-360v-225h340v-84h-340v-237h360v-83h-462zM329 917q55 0 100.5 -25.5t67.5 -82.5l-56 -24q-22 38 -50 51.5t-62 13.5t-62.5 -13.5t-50.5 -51.5l-56 24q23 57 68 82.5t101 25.5z" />
    <glyph glyph-name="Emacron" unicode="&#x112;" horiz-adv-x="591" 
d="M83 0v712h462v-83h-360v-225h340v-84h-340v-237h360v-83h-462zM175 815v71h307v-71h-307z" />
    <glyph glyph-name="uni1E16" unicode="&#x1e16;" horiz-adv-x="591" 
d="M83 0v712h462v-83h-360v-225h340v-84h-340v-237h360v-83h-462zM175 815v71h307v-71h-307zM362 935h-67l102 154h104z" />
    <glyph glyph-name="uni1E14" unicode="&#x1e14;" horiz-adv-x="591" 
d="M83 0v712h462v-83h-360v-225h340v-84h-340v-237h360v-83h-462zM175 815v71h307v-71h-307zM295 935l-139 154h104l102 -154h-67z" />
    <glyph glyph-name="Eogonek" unicode="&#x118;" horiz-adv-x="591" 
d="M564 -119l17 -55q-19 -10 -42 -16t-49 -6q-54 0 -87.5 30.5t-33.5 76.5q0 71 68 108l17 -19h-371v712h462v-83h-360v-225h340v-84h-340v-237h360v-83h-17q-42 0 -64 -21t-22 -54q0 -29 17.5 -44.5t47.5 -15.5q12 0 26.5 4t30.5 12z" />
    <glyph glyph-name="uni1EBC" unicode="&#x1ebc;" horiz-adv-x="591" 
d="M83 0v712h462v-83h-360v-225h340v-84h-340v-237h360v-83h-462zM162 790q0 62 27 93.5t69 31.5q27 0 52 -14t47 -28.5t41 -14.5q22 0 34 15.5t12 38.5h51q0 -62 -27 -93.5t-69 -31.5q-27 0 -52 14t-47 28t-41 14q-22 0 -34 -15.5t-12 -37.5h-51z" />
    <glyph glyph-name="F" unicode="F" horiz-adv-x="567" 
d="M83 0v712h452v-85h-350v-223h330v-85h-330v-319h-102z" />
    <glyph glyph-name="G" unicode="G" horiz-adv-x="735" 
d="M407 -8q-109 0 -187 43.5t-119.5 125t-41.5 196.5q0 113 41.5 195t118.5 125t182 43q75 0 138.5 -22t108.5 -65l-37 -77q-52 42 -101 60.5t-108 18.5q-116 0 -176.5 -71t-60.5 -207q0 -139 62.5 -210.5t183.5 -71.5q48 0 94 9t85 24l-24 -45v237h-166v77h260v-335
q-30 -16 -71.5 -27t-88 -17t-93.5 -6z" />
    <glyph glyph-name="Gbreve" unicode="&#x11e;" horiz-adv-x="735" 
d="M407 -8q-109 0 -187 43.5t-119.5 125t-41.5 196.5q0 113 41.5 195t118.5 125t182 43q75 0 138.5 -22t108.5 -65l-37 -77q-52 42 -101 60.5t-108 18.5q-116 0 -176.5 -71t-60.5 -207q0 -139 62.5 -210.5t183.5 -71.5q48 0 94 9t85 24l-24 -45v237h-166v77h260v-335
q-30 -16 -71.5 -27t-88 -17t-93.5 -6zM400 784q-56 0 -101.5 25t-67.5 83l56 24q22 -39 50.5 -52t62.5 -13t62 13t50 52l56 -24q-23 -58 -68 -83t-100 -25z" />
    <glyph glyph-name="Gcaron" unicode="&#x1e6;" horiz-adv-x="735" 
d="M407 -8q-109 0 -187 43.5t-119.5 125t-41.5 196.5q0 113 41.5 195t118.5 125t182 43q75 0 138.5 -22t108.5 -65l-37 -77q-52 42 -101 60.5t-108 18.5q-116 0 -176.5 -71t-60.5 -207q0 -139 62.5 -210.5t183.5 -71.5q48 0 94 9t85 24l-24 -45v237h-166v77h260v-335
q-30 -16 -71.5 -27t-88 -17t-93.5 -6zM470 927h85l-124 -154h-63l-124 154h85l71 -100z" />
    <glyph glyph-name="Gcircumflex" unicode="&#x11c;" horiz-adv-x="735" 
d="M407 -8q-109 0 -187 43.5t-119.5 125t-41.5 196.5q0 113 41.5 195t118.5 125t182 43q75 0 138.5 -22t108.5 -65l-37 -77q-52 42 -101 60.5t-108 18.5q-116 0 -176.5 -71t-60.5 -207q0 -139 62.5 -210.5t183.5 -71.5q48 0 94 9t85 24l-24 -45v237h-166v77h260v-335
q-30 -16 -71.5 -27t-88 -17t-93.5 -6zM329 773h-85l124 154h63l124 -154h-85l-70 99z" />
    <glyph glyph-name="uni0122" unicode="&#x122;" horiz-adv-x="735" 
d="M407 -8q-109 0 -187 43.5t-119.5 125t-41.5 196.5q0 113 41.5 195t118.5 125t182 43q75 0 138.5 -22t108.5 -65l-37 -77q-52 42 -101 60.5t-108 18.5q-116 0 -176.5 -71t-60.5 -207q0 -139 62.5 -210.5t183.5 -71.5q48 0 94 9t85 24l-24 -45v237h-166v77h260v-335
q-30 -16 -71.5 -27t-88 -17t-93.5 -6zM463 -71v-60q0 -40 -11 -73t-43 -62l-42 30q22 23 29.5 44t7.5 45l26 -16h-80v92h113z" />
    <glyph glyph-name="Gdotaccent" unicode="&#x120;" horiz-adv-x="735" 
d="M407 -8q-109 0 -187 43.5t-119.5 125t-41.5 196.5q0 113 41.5 195t118.5 125t182 43q75 0 138.5 -22t108.5 -65l-37 -77q-52 42 -101 60.5t-108 18.5q-116 0 -176.5 -71t-60.5 -207q0 -139 62.5 -210.5t183.5 -71.5q48 0 94 9t85 24l-24 -45v237h-166v77h260v-335
q-30 -16 -71.5 -27t-88 -17t-93.5 -6zM341 904h117v-107h-117v107z" />
    <glyph glyph-name="uni1E20" unicode="&#x1e20;" horiz-adv-x="735" 
d="M407 -8q-109 0 -187 43.5t-119.5 125t-41.5 196.5q0 113 41.5 195t118.5 125t182 43q75 0 138.5 -22t108.5 -65l-37 -77q-52 42 -101 60.5t-108 18.5q-116 0 -176.5 -71t-60.5 -207q0 -139 62.5 -210.5t183.5 -71.5q48 0 94 9t85 24l-24 -45v237h-166v77h260v-335
q-30 -16 -71.5 -27t-88 -17t-93.5 -6zM246 815v71h307v-71h-307z" />
    <glyph glyph-name="H" unicode="H" horiz-adv-x="770" 
d="M584 0v712h102v-712h-102zM83 0v712h102v-712h-102zM125 319v85h518v-85h-518z" />
    <glyph glyph-name="Hbar" unicode="&#x126;" horiz-adv-x="806" 
d="M10 522v80h786v-80h-786zM602 0v712h103v-712h-103zM101 0v712h103v-712h-103zM143 319v85h508v-85h-508z" />
    <glyph glyph-name="uni1E2A" unicode="&#x1e2a;" horiz-adv-x="770" 
d="M584 0v712h102v-712h-102zM83 0v712h102v-712h-102zM125 319v85h518v-85h-518zM385 -217q-37 0 -71 13.5t-61 42.5t-41 76l56 24q24 -47 53.5 -66.5t63.5 -19.5t63 19.5t53 66.5l56 -23q-14 -48 -40.5 -77t-61 -42.5t-70.5 -13.5z" />
    <glyph glyph-name="Hcircumflex" unicode="&#x124;" horiz-adv-x="770" 
d="M584 0v712h102v-712h-102zM83 0v712h102v-712h-102zM125 319v85h518v-85h-518zM314 773h-85l124 154h63l124 -154h-85l-70 99z" />
    <glyph glyph-name="uni1E24" unicode="&#x1e24;" horiz-adv-x="770" 
d="M584 0v712h102v-712h-102zM83 0v712h102v-712h-102zM125 319v85h518v-85h-518zM331 -87h107v-102h-107v102z" />
    <glyph glyph-name="I" unicode="I" horiz-adv-x="270" 
d="M83 0v712h103v-712h-103z" />
    <glyph glyph-name="Iacute" unicode="&#xcd;" horiz-adv-x="270" 
d="M83 0v712h103v-712h-103zM168 773h-67l102 154h104z" />
    <glyph glyph-name="Ibreve" unicode="&#x12c;" horiz-adv-x="270" 
d="M83 0v712h103v-712h-103zM135 784q-56 0 -101.5 25t-67.5 83l56 24q22 -39 50.5 -52t62.5 -13t62 13t50 52l56 -24q-23 -58 -68 -83t-100 -25z" />
    <glyph glyph-name="Icircumflex" unicode="&#xce;" horiz-adv-x="270" 
d="M83 0v712h103v-712h-103zM64 773h-85l124 154h63l124 -154h-85l-70 99z" />
    <glyph glyph-name="uni0208" unicode="&#x208;" horiz-adv-x="270" 
d="M83 0v712h103v-712h-103zM171 773l-99 154h80l72 -154h-53zM45 773l-99 154h79l73 -154h-53z" />
    <glyph glyph-name="Idieresis" unicode="&#xcf;" horiz-adv-x="270" 
d="M83 0v712h103v-712h-103zM172 900h104v-99h-104v99zM-7 900h104v-99h-104v99z" />
    <glyph glyph-name="uni1E2E" unicode="&#x1e2e;" horiz-adv-x="270" 
d="M83 0v712h103v-712h-103zM172 900h104v-99h-104v99zM-7 900h104v-99h-104v99zM168 935h-67l102 154h104z" />
    <glyph glyph-name="Idotaccent" unicode="&#x130;" horiz-adv-x="270" 
d="M83 0v712h103v-712h-103zM76 904h117v-107h-117v107z" />
    <glyph glyph-name="uni1ECA" unicode="&#x1eca;" horiz-adv-x="270" 
d="M83 0v712h103v-712h-103zM81 -87h107v-102h-107v102z" />
    <glyph glyph-name="Igrave" unicode="&#xcc;" horiz-adv-x="270" 
d="M83 0v712h103v-712h-103zM101 773l-139 154h104l102 -154h-67z" />
    <glyph glyph-name="uni1EC8" unicode="&#x1ec8;" horiz-adv-x="270" 
d="M83 0v712h103v-712h-103zM165 784v-11h-60v19q0 17 10 27t23.5 16t23.5 12t10 14q0 9 -9.5 14t-29.5 5q-13 0 -27.5 -2.5t-32.5 -9.5l-16 46q18 8 40 12.5t46 4.5q48 0 74.5 -18t26.5 -46q0 -20 -12 -31t-27.5 -18t-27.5 -14.5t-12 -19.5z" />
    <glyph glyph-name="uni020A" unicode="&#x20a;" horiz-adv-x="270" 
d="M83 0v712h103v-712h-103zM135 917q55 0 100.5 -25.5t67.5 -82.5l-56 -24q-22 38 -50 51.5t-62 13.5t-62.5 -13.5t-50.5 -51.5l-56 24q23 57 68 82.5t101 25.5z" />
    <glyph glyph-name="Imacron" unicode="&#x12a;" horiz-adv-x="270" 
d="M83 0v712h103v-712h-103zM-19 815v71h307v-71h-307z" />
    <glyph glyph-name="Iogonek" unicode="&#x12e;" horiz-adv-x="270" 
d="M137 -196q-53 0 -87.5 30t-34.5 79q0 42 29 76t85 49l-16 -38h-30v712h103v-712h-9q-42 0 -65 -22t-23 -53q0 -29 17.5 -44.5t46.5 -15.5q12 0 27 4t31 12l16 -55q-18 -10 -41 -16t-49 -6z" />
    <glyph glyph-name="Itilde" unicode="&#x128;" horiz-adv-x="270" 
d="M83 0v712h103v-712h-103zM-32 790q0 62 27 93.5t69 31.5q27 0 52 -14t47 -28.5t41 -14.5q22 0 34 15.5t12 38.5h51q0 -62 -27 -93.5t-69 -31.5q-27 0 -52 14t-47 28t-41 14q-22 0 -34 -15.5t-12 -37.5h-51z" />
    <glyph glyph-name="J" unicode="J" horiz-adv-x="344" 
d="M-4 -178v87q63 -11 98 -6t49 32.5t14 83.5v693h103v-693q0 -85 -25 -134t-83 -64t-156 1z" />
    <glyph glyph-name="Jcircumflex" unicode="&#x134;" horiz-adv-x="344" 
d="M-4 -178v87q63 -11 98 -6t49 32.5t14 83.5v693h103v-693q0 -85 -25 -134t-83 -64t-156 1zM138 773h-85l124 154h63l124 -154h-85l-70 99z" />
    <glyph glyph-name="K" unicode="K" horiz-adv-x="648" 
d="M537 0l-378 363l363 349h128l-395 -378l6 61l406 -395h-130zM83 0v712h103v-712h-103z" />
    <glyph glyph-name="uni0136" unicode="&#x136;" horiz-adv-x="648" 
d="M537 0l-378 363l363 349h128l-395 -378l6 61l406 -395h-130zM83 0v712h103v-712h-103zM382 -71v-60q0 -40 -11 -73t-43 -62l-42 30q22 23 29.5 44t7.5 45l26 -16h-80v92h113z" />
    <glyph glyph-name="L" unicode="L" horiz-adv-x="552" 
d="M83 0v712h103v-626h346v-86h-449z" />
    <glyph glyph-name="uni01C7" unicode="&#x1c7;" horiz-adv-x="827" 
d="M83 0v712h103v-626h316v-86h-419zM479 -178v87q62 -11 97.5 -6t49.5 32.5t14 83.5v693h104v-693q0 -85 -25 -134t-83.5 -64t-156.5 1z" />
    <glyph glyph-name="Lacute" unicode="&#x139;" horiz-adv-x="552" 
d="M83 0v712h103v-626h346v-86h-449zM168 773h-67l102 154h104z" />
    <glyph glyph-name="Lcaron" unicode="&#x13d;" horiz-adv-x="552" 
d="M83 0v712h103v-626h346v-86h-449zM324 519h-51v193h77z" />
    <glyph glyph-name="uni013B" unicode="&#x13b;" horiz-adv-x="552" 
d="M83 0v712h103v-626h346v-86h-449zM369 -71v-60q0 -40 -11 -73t-43 -62l-42 30q22 23 29.5 44t7.5 45l26 -16h-80v92h113z" />
    <glyph glyph-name="Ldot" unicode="&#x13f;" horiz-adv-x="552" 
d="M83 0v712h103v-626h346v-86h-449zM305 411h119v-109h-119v109z" />
    <glyph glyph-name="uni1E36" unicode="&#x1e36;" horiz-adv-x="552" 
d="M83 0v712h103v-626h346v-86h-449zM259 -87h107v-102h-107v102z" />
    <glyph glyph-name="uni01C8" unicode="&#x1c8;" horiz-adv-x="800" 
d="M83 0v712h103v-626h346v-86h-449zM494 -128q15 -4 26.5 -6t22.5 -2q23 0 42 8.5t29.5 29t10.5 57.5v545h101v-553q0 -85 -42.5 -128.5t-117.5 -43.5q-18 0 -36.5 2t-35.5 8v83zM617 724h117v-106h-117v106z" />
    <glyph glyph-name="uni1E3A" unicode="&#x1e3a;" horiz-adv-x="552" 
d="M83 0v712h103v-626h346v-86h-449zM159 -173v69h307v-69h-307z" />
    <glyph glyph-name="Lslash" unicode="&#x141;" horiz-adv-x="571" 
d="M9 231v93l384 221v-93zM101 0v712h104v-626h346v-86h-450z" />
    <glyph glyph-name="M" unicode="M" horiz-adv-x="850" 
d="M84 0v712h84l280 -637h-43l277 637h84v-712h-94v569l32 -6l-244 -563h-70l-248 563l34 6l1 -569h-93z" />
    <glyph glyph-name="uni1E42" unicode="&#x1e42;" horiz-adv-x="850" 
d="M84 0v712h84l280 -637h-43l277 637h84v-712h-94v569l32 -6l-244 -563h-70l-248 563l34 6l1 -569h-93zM370 -87h107v-102h-107v102z" />
    <glyph glyph-name="N" unicode="N" horiz-adv-x="750" 
d="M83 0v712h78l434 -572l-25 -10v582h97v-712h-79l-432 571l24 11v-582h-97z" />
    <glyph glyph-name="uni01CA" unicode="&#x1ca;" horiz-adv-x="1094" 
d="M83 0v712h78l434 -572l-25 -10v582h97v-712h-79l-432 571l24 11v-582h-97zM746 -178v87q63 -11 98 -6t49 32.5t14 83.5v693h103v-693q0 -85 -25 -134t-83 -64t-156 1z" />
    <glyph glyph-name="Nacute" unicode="&#x143;" horiz-adv-x="750" 
d="M83 0v712h78l434 -572l-25 -10v582h97v-712h-79l-432 571l24 11v-582h-97zM408 773h-67l102 154h104z" />
    <glyph glyph-name="Ncaron" unicode="&#x147;" horiz-adv-x="750" 
d="M83 0v712h78l434 -572l-25 -10v582h97v-712h-79l-432 571l24 11v-582h-97zM445 927h85l-124 -154h-63l-124 154h85l71 -100z" />
    <glyph glyph-name="uni0145" unicode="&#x145;" horiz-adv-x="750" 
d="M83 0v712h78l434 -572l-25 -10v582h97v-712h-79l-432 571l24 11v-582h-97zM432 -71v-60q0 -40 -11 -73t-43 -62l-42 30q22 23 29.5 44t7.5 45l26 -16h-80v92h113z" />
    <glyph glyph-name="uni1E44" unicode="&#x1e44;" horiz-adv-x="750" 
d="M83 0v712h78l434 -572l-25 -10v582h97v-712h-79l-432 571l24 11v-582h-97zM316 904h117v-107h-117v107z" />
    <glyph glyph-name="uni1E46" unicode="&#x1e46;" horiz-adv-x="750" 
d="M83 0v712h78l434 -572l-25 -10v582h97v-712h-79l-432 571l24 11v-582h-97zM322 -87h107v-102h-107v102z" />
    <glyph glyph-name="Eng" unicode="&#x14a;" horiz-adv-x="750" 
d="M570 712h97v-703q0 -87 -45.5 -137t-141.5 -56l-74 -5l-6 82l64 4q51 4 78 31t27 76v59l17 -60l-430 568l24 11v-582h-97v712h78l434 -572l-25 -10v582z" />
    <glyph glyph-name="uni01CB" unicode="&#x1cb;" horiz-adv-x="998" 
d="M83 0v712h78l434 -572l-25 -10v582h97v-712h-79l-432 571l24 11v-582h-97zM692 -128q15 -4 26.5 -6t22.5 -2q23 0 42 8.5t29.5 29t10.5 57.5v545h101v-553q0 -85 -42.5 -128.5t-117.5 -43.5q-18 0 -36.5 2t-35.5 8v83zM815 724h117v-106h-117v106z" />
    <glyph glyph-name="uni1E48" unicode="&#x1e48;" horiz-adv-x="750" 
d="M83 0v712h78l434 -572l-25 -10v582h97v-712h-79l-432 571l24 11v-582h-97zM222 -173v69h307v-69h-307z" />
    <glyph glyph-name="Ntilde" unicode="&#xd1;" horiz-adv-x="750" 
d="M83 0v712h78l434 -572l-25 -10v582h97v-712h-79l-432 571l24 11v-582h-97zM208 790q0 62 27 93.5t69 31.5q27 0 52 -14t47 -28.5t41 -14.5q22 0 34 15.5t12 38.5h51q0 -62 -27 -93.5t-69 -31.5q-27 0 -52 14t-47 28t-41 14q-22 0 -34 -15.5t-12 -37.5h-51z" />
    <glyph glyph-name="O" unicode="O" horiz-adv-x="779" 
d="M389 -8q-102 0 -176 44t-114 126t-40 194q0 113 40 194.5t114 125.5t176 44t176.5 -44t114.5 -125.5t40 -193.5q0 -113 -40.5 -195t-114.5 -126t-176 -44zM389 76q106 0 166 72.5t60 208.5t-60 207.5t-166 71.5t-166 -72t-60 -207t60 -208t166 -73z" />
    <glyph glyph-name="Oacute" unicode="&#xd3;" horiz-adv-x="779" 
d="M389 -8q-102 0 -176 44t-114 126t-40 194q0 113 40 194.5t114 125.5t176 44t176.5 -44t114.5 -125.5t40 -193.5q0 -113 -40.5 -195t-114.5 -126t-176 -44zM389 76q106 0 166 72.5t60 208.5t-60 207.5t-166 71.5t-166 -72t-60 -207t60 -208t166 -73zM421 773h-67l102 154
h104z" />
    <glyph glyph-name="Obreve" unicode="&#x14e;" horiz-adv-x="779" 
d="M389 -8q-102 0 -176 44t-114 126t-40 194q0 113 40 194.5t114 125.5t176 44t176.5 -44t114.5 -125.5t40 -193.5q0 -113 -40.5 -195t-114.5 -126t-176 -44zM389 76q106 0 166 72.5t60 208.5t-60 207.5t-166 71.5t-166 -72t-60 -207t60 -208t166 -73zM388 784
q-56 0 -101.5 25t-67.5 83l56 24q22 -39 50.5 -52t62.5 -13t62 13t50 52l56 -24q-23 -58 -68 -83t-100 -25z" />
    <glyph glyph-name="Ocircumflex" unicode="&#xd4;" horiz-adv-x="779" 
d="M389 -8q-102 0 -176 44t-114 126t-40 194q0 113 40 194.5t114 125.5t176 44t176.5 -44t114.5 -125.5t40 -193.5q0 -113 -40.5 -195t-114.5 -126t-176 -44zM389 76q106 0 166 72.5t60 208.5t-60 207.5t-166 71.5t-166 -72t-60 -207t60 -208t166 -73zM317 773h-85l124 154
h63l124 -154h-85l-70 99z" />
    <glyph glyph-name="uni1ED0" unicode="&#x1ed0;" horiz-adv-x="779" 
d="M389 -8q-102 0 -176 44t-114 126t-40 194q0 113 40 194.5t114 125.5t176 44t176.5 -44t114.5 -125.5t40 -193.5q0 -113 -40.5 -195t-114.5 -126t-176 -44zM389 76q106 0 166 72.5t60 208.5t-60 207.5t-166 71.5t-166 -72t-60 -207t60 -208t166 -73zM317 773h-85l124 146
h63l124 -146h-85l-70 92zM532 878h-56l86 142h97z" />
    <glyph glyph-name="uni1ED8" unicode="&#x1ed8;" horiz-adv-x="779" 
d="M389 -8q-102 0 -176 44t-114 126t-40 194q0 113 40 194.5t114 125.5t176 44t176.5 -44t114.5 -125.5t40 -193.5q0 -113 -40.5 -195t-114.5 -126t-176 -44zM389 76q106 0 166 72.5t60 208.5t-60 207.5t-166 71.5t-166 -72t-60 -207t60 -208t166 -73zM335 -87h107v-102
h-107v102zM317 773h-85l124 154h63l124 -154h-85l-70 99z" />
    <glyph glyph-name="uni1ED2" unicode="&#x1ed2;" horiz-adv-x="779" 
d="M389 -8q-102 0 -176 44t-114 126t-40 194q0 113 40 194.5t114 125.5t176 44t176.5 -44t114.5 -125.5t40 -193.5q0 -113 -40.5 -195t-114.5 -126t-176 -44zM389 76q106 0 166 72.5t60 208.5t-60 207.5t-166 71.5t-166 -72t-60 -207t60 -208t166 -73zM317 773h-85l124 146
h63l124 -146h-85l-70 92zM519 878l-116 142h96l76 -142h-56z" />
    <glyph glyph-name="uni1ED4" unicode="&#x1ed4;" horiz-adv-x="779" 
d="M389 -8q-102 0 -176 44t-114 126t-40 194q0 113 40 194.5t114 125.5t176 44t176.5 -44t114.5 -125.5t40 -193.5q0 -113 -40.5 -195t-114.5 -126t-176 -44zM389 76q106 0 166 72.5t60 208.5t-60 207.5t-166 71.5t-166 -72t-60 -207t60 -208t166 -73zM317 773h-85l124 146
h63l124 -146h-85l-70 92zM535 887v-9h-60v18q0 17 10 26t23 14.5t23.5 9.5t10.5 12t-9.5 12.5t-29.5 4.5q-13 0 -28 -2.5t-32 -8.5l-16 44q18 8 40 13t46 5q48 0 75 -17.5t27 -45.5q0 -19 -12 -29t-28 -16t-28 -12.5t-12 -18.5z" />
    <glyph glyph-name="uni1ED6" unicode="&#x1ed6;" horiz-adv-x="779" 
d="M389 -8q-102 0 -176 44t-114 126t-40 194q0 113 40 194.5t114 125.5t176 44t176.5 -44t114.5 -125.5t40 -193.5q0 -113 -40.5 -195t-114.5 -126t-176 -44zM389 76q106 0 166 72.5t60 208.5t-60 207.5t-166 71.5t-166 -72t-60 -207t60 -208t166 -73zM317 773h-85l124 146
h63l124 -146h-85l-70 92zM221 934q0 30 12.5 53t34 35.5t49.5 12.5q27 0 52 -9.5t47 -20t41 -10.5q22 0 34 12t12 29h51q0 -29 -12.5 -52t-34 -36.5t-49.5 -13.5q-27 0 -52 10.5t-47 20.5t-41 10q-22 0 -34 -12t-12 -29h-51z" />
    <glyph glyph-name="uni020C" unicode="&#x20c;" horiz-adv-x="779" 
d="M389 -8q-102 0 -176 44t-114 126t-40 194q0 113 40 194.5t114 125.5t176 44t176.5 -44t114.5 -125.5t40 -193.5q0 -113 -40.5 -195t-114.5 -126t-176 -44zM389 76q106 0 166 72.5t60 208.5t-60 207.5t-166 71.5t-166 -72t-60 -207t60 -208t166 -73zM424 773l-99 154h80
l72 -154h-53zM298 773l-99 154h79l73 -154h-53z" />
    <glyph glyph-name="Odieresis" unicode="&#xd6;" horiz-adv-x="779" 
d="M389 -8q-102 0 -176 44t-114 126t-40 194q0 113 40 194.5t114 125.5t176 44t176.5 -44t114.5 -125.5t40 -193.5q0 -113 -40.5 -195t-114.5 -126t-176 -44zM389 76q106 0 166 72.5t60 208.5t-60 207.5t-166 71.5t-166 -72t-60 -207t60 -208t166 -73zM425 900h104v-99h-104
v99zM246 900h104v-99h-104v99z" />
    <glyph glyph-name="uni022A" unicode="&#x22a;" horiz-adv-x="779" 
d="M389 -8q-102 0 -176 44t-114 126t-40 194q0 113 40 194.5t114 125.5t176 44t176.5 -44t114.5 -125.5t40 -193.5q0 -113 -40.5 -195t-114.5 -126t-176 -44zM389 76q106 0 166 72.5t60 208.5t-60 207.5t-166 71.5t-166 -72t-60 -207t60 -208t166 -73zM425 900h104v-99h-104
v99zM246 900h104v-99h-104v99zM234 977v71h307v-71h-307z" />
    <glyph glyph-name="uni0230" unicode="&#x230;" horiz-adv-x="779" 
d="M389 -8q-102 0 -176 44t-114 126t-40 194q0 113 40 194.5t114 125.5t176 44t176.5 -44t114.5 -125.5t40 -193.5q0 -113 -40.5 -195t-114.5 -126t-176 -44zM389 76q106 0 166 72.5t60 208.5t-60 207.5t-166 71.5t-166 -72t-60 -207t60 -208t166 -73zM329 904h117v-107
h-117v107zM234 977v71h307v-71h-307z" />
    <glyph glyph-name="uni1ECC" unicode="&#x1ecc;" horiz-adv-x="779" 
d="M389 -8q-102 0 -176 44t-114 126t-40 194q0 113 40 194.5t114 125.5t176 44t176.5 -44t114.5 -125.5t40 -193.5q0 -113 -40.5 -195t-114.5 -126t-176 -44zM389 76q106 0 166 72.5t60 208.5t-60 207.5t-166 71.5t-166 -72t-60 -207t60 -208t166 -73zM335 -87h107v-102
h-107v102z" />
    <glyph glyph-name="Ograve" unicode="&#xd2;" horiz-adv-x="779" 
d="M389 -8q-102 0 -176 44t-114 126t-40 194q0 113 40 194.5t114 125.5t176 44t176.5 -44t114.5 -125.5t40 -193.5q0 -113 -40.5 -195t-114.5 -126t-176 -44zM389 76q106 0 166 72.5t60 208.5t-60 207.5t-166 71.5t-166 -72t-60 -207t60 -208t166 -73zM354 773l-139 154h104
l102 -154h-67z" />
    <glyph glyph-name="uni1ECE" unicode="&#x1ece;" horiz-adv-x="779" 
d="M389 -8q-102 0 -176 44t-114 126t-40 194q0 113 40 194.5t114 125.5t176 44t176.5 -44t114.5 -125.5t40 -193.5q0 -113 -40.5 -195t-114.5 -126t-176 -44zM389 76q106 0 166 72.5t60 208.5t-60 207.5t-166 71.5t-166 -72t-60 -207t60 -208t166 -73zM418 784v-11h-60v19
q0 17 10 27t23.5 16t23.5 12t10 14q0 9 -9.5 14t-29.5 5q-13 0 -27.5 -2.5t-32.5 -9.5l-16 46q18 8 40 12.5t46 4.5q48 0 74.5 -18t26.5 -46q0 -20 -12 -31t-27.5 -18t-27.5 -14.5t-12 -19.5z" />
    <glyph glyph-name="Ohorn" unicode="&#x1a0;" horiz-adv-x="779" 
d="M389 -8q-102 0 -176 44t-114 126t-40 194q0 113 40 194.5t114.5 125.5t178.5 44q36 0 69.5 -4t64.5 -4q57 1 80.5 25.5t23.5 83.5v16h90v-30q0 -46 -19.5 -80.5t-54 -53.5t-81.5 -19l4 17q74 -44 112.5 -124t38.5 -190q0 -113 -40.5 -195t-114.5 -126t-176 -44zM389 76
q106 0 166 72.5t60 208.5t-60 207.5t-166 71.5t-166 -72t-60 -207t60 -208t166 -73z" />
    <glyph glyph-name="uni1EDA" unicode="&#x1eda;" horiz-adv-x="779" 
d="M389 -8q-102 0 -176 44t-114 126t-40 194q0 113 40 194.5t114.5 125.5t178.5 44q36 0 69.5 -4t64.5 -4q57 1 80.5 25.5t23.5 83.5v16h90v-30q0 -46 -19.5 -80.5t-54 -53.5t-81.5 -19l4 17q74 -44 112.5 -124t38.5 -190q0 -113 -40.5 -195t-114.5 -126t-176 -44zM389 76
q106 0 166 72.5t60 208.5t-60 207.5t-166 71.5t-166 -72t-60 -207t60 -208t166 -73zM421 773h-67l102 154h104z" />
    <glyph glyph-name="uni1EE2" unicode="&#x1ee2;" horiz-adv-x="779" 
d="M389 -8q-102 0 -176 44t-114 126t-40 194q0 113 40 194.5t114.5 125.5t178.5 44q36 0 69.5 -4t64.5 -4q57 1 80.5 25.5t23.5 83.5v16h90v-30q0 -46 -19.5 -80.5t-54 -53.5t-81.5 -19l4 17q74 -44 112.5 -124t38.5 -190q0 -113 -40.5 -195t-114.5 -126t-176 -44zM389 76
q106 0 166 72.5t60 208.5t-60 207.5t-166 71.5t-166 -72t-60 -207t60 -208t166 -73zM335 -87h107v-102h-107v102z" />
    <glyph glyph-name="uni1EDC" unicode="&#x1edc;" horiz-adv-x="779" 
d="M389 -8q-102 0 -176 44t-114 126t-40 194q0 113 40 194.5t114.5 125.5t178.5 44q36 0 69.5 -4t64.5 -4q57 1 80.5 25.5t23.5 83.5v16h90v-30q0 -46 -19.5 -80.5t-54 -53.5t-81.5 -19l4 17q74 -44 112.5 -124t38.5 -190q0 -113 -40.5 -195t-114.5 -126t-176 -44zM389 76
q106 0 166 72.5t60 208.5t-60 207.5t-166 71.5t-166 -72t-60 -207t60 -208t166 -73zM354 773l-139 154h104l102 -154h-67z" />
    <glyph glyph-name="uni1EDE" unicode="&#x1ede;" horiz-adv-x="779" 
d="M389 -8q-102 0 -176 44t-114 126t-40 194q0 113 40 194.5t114.5 125.5t178.5 44q36 0 69.5 -4t64.5 -4q57 1 80.5 25.5t23.5 83.5v16h90v-30q0 -46 -19.5 -80.5t-54 -53.5t-81.5 -19l4 17q74 -44 112.5 -124t38.5 -190q0 -113 -40.5 -195t-114.5 -126t-176 -44zM389 76
q106 0 166 72.5t60 208.5t-60 207.5t-166 71.5t-166 -72t-60 -207t60 -208t166 -73zM418 784v-11h-60v19q0 17 10 27t23.5 16t23.5 12t10 14q0 9 -9.5 14t-29.5 5q-13 0 -27.5 -2.5t-32.5 -9.5l-16 46q18 8 40 12.5t46 4.5q48 0 74.5 -18t26.5 -46q0 -20 -12 -31t-27.5 -18
t-27.5 -14.5t-12 -19.5z" />
    <glyph glyph-name="uni1EE0" unicode="&#x1ee0;" horiz-adv-x="779" 
d="M389 -8q-102 0 -176 44t-114 126t-40 194q0 113 40 194.5t114.5 125.5t178.5 44q36 0 69.5 -4t64.5 -4q57 1 80.5 25.5t23.5 83.5v16h90v-30q0 -46 -19.5 -80.5t-54 -53.5t-81.5 -19l4 17q74 -44 112.5 -124t38.5 -190q0 -113 -40.5 -195t-114.5 -126t-176 -44zM389 76
q106 0 166 72.5t60 208.5t-60 207.5t-166 71.5t-166 -72t-60 -207t60 -208t166 -73zM221 790q0 62 27 93.5t69 31.5q27 0 52 -14t47 -28.5t41 -14.5q22 0 34 15.5t12 38.5h51q0 -62 -27 -93.5t-69 -31.5q-27 0 -52 14t-47 28t-41 14q-22 0 -34 -15.5t-12 -37.5h-51z" />
    <glyph glyph-name="Ohungarumlaut" unicode="&#x150;" horiz-adv-x="779" 
d="M389 -8q-102 0 -176 44t-114 126t-40 194q0 113 40 194.5t114 125.5t176 44t176.5 -44t114.5 -125.5t40 -193.5q0 -113 -40.5 -195t-114.5 -126t-176 -44zM389 76q106 0 166 72.5t60 208.5t-60 207.5t-166 71.5t-166 -72t-60 -207t60 -208t166 -73zM424 773l73 154h79
l-99 -154h-53zM298 773l72 154h80l-99 -154h-53z" />
    <glyph glyph-name="uni020E" unicode="&#x20e;" horiz-adv-x="779" 
d="M389 -8q-102 0 -176 44t-114 126t-40 194q0 113 40 194.5t114 125.5t176 44t176.5 -44t114.5 -125.5t40 -193.5q0 -113 -40.5 -195t-114.5 -126t-176 -44zM389 76q106 0 166 72.5t60 208.5t-60 207.5t-166 71.5t-166 -72t-60 -207t60 -208t166 -73zM388 917
q55 0 100.5 -25.5t67.5 -82.5l-56 -24q-22 38 -50 51.5t-62 13.5t-62.5 -13.5t-50.5 -51.5l-56 24q23 57 68 82.5t101 25.5z" />
    <glyph glyph-name="Omacron" unicode="&#x14c;" horiz-adv-x="779" 
d="M389 -8q-102 0 -176 44t-114 126t-40 194q0 113 40 194.5t114 125.5t176 44t176.5 -44t114.5 -125.5t40 -193.5q0 -113 -40.5 -195t-114.5 -126t-176 -44zM389 76q106 0 166 72.5t60 208.5t-60 207.5t-166 71.5t-166 -72t-60 -207t60 -208t166 -73zM234 815v71h307v-71
h-307z" />
    <glyph glyph-name="uni1E52" unicode="&#x1e52;" horiz-adv-x="779" 
d="M389 -8q-102 0 -176 44t-114 126t-40 194q0 113 40 194.5t114 125.5t176 44t176.5 -44t114.5 -125.5t40 -193.5q0 -113 -40.5 -195t-114.5 -126t-176 -44zM389 76q106 0 166 72.5t60 208.5t-60 207.5t-166 71.5t-166 -72t-60 -207t60 -208t166 -73zM234 815v71h307v-71
h-307zM421 935h-67l102 154h104z" />
    <glyph glyph-name="uni1E50" unicode="&#x1e50;" horiz-adv-x="779" 
d="M389 -8q-102 0 -176 44t-114 126t-40 194q0 113 40 194.5t114 125.5t176 44t176.5 -44t114.5 -125.5t40 -193.5q0 -113 -40.5 -195t-114.5 -126t-176 -44zM389 76q106 0 166 72.5t60 208.5t-60 207.5t-166 71.5t-166 -72t-60 -207t60 -208t166 -73zM234 815v71h307v-71
h-307zM354 935l-139 154h104l102 -154h-67z" />
    <glyph glyph-name="uni01EA" unicode="&#x1ea;" horiz-adv-x="779" 
d="M490 4q-71 -20 -71 -79q0 -29 17 -44.5t48 -15.5q13 0 27 4t30 12l16 -55q-39 -22 -90 -22q-53 0 -87.5 30.5t-34.5 76.5q0 31 15 57.5t41 42.5l10 -19q-107 -6 -186.5 37.5t-122.5 127t-43 199.5q0 113 40 194.5t114 125.5t176 44t176 -44t114.5 -125.5t40.5 -193.5
q0 -138 -60 -230t-170 -123zM163 357q0 -135 60 -208t166 -73t166 72.5t60 208.5t-60 207.5t-166 71.5t-166 -72t-60 -207z" />
    <glyph glyph-name="Oslash" unicode="&#xd8;" horiz-adv-x="779" 
d="M389 -8q-102 0 -176 44t-114 126t-40 194q0 113 40 194.5t114 125.5t176 44t176.5 -44t114.5 -125.5t40 -193.5q0 -113 -40.5 -195t-114.5 -126t-176 -44zM197 -53l-69 41l453 777l69 -41zM389 76q106 0 166 72.5t60 208.5t-60 207.5t-166 71.5t-166 -72t-60 -207
t60 -208t166 -73z" />
    <glyph glyph-name="Oslashacute" unicode="&#x1fe;" horiz-adv-x="779" 
d="M389 -8q-102 0 -176 44t-114 126t-40 194q0 113 40 194.5t114 125.5t176 44t176.5 -44t114.5 -125.5t40 -193.5q0 -113 -40.5 -195t-114.5 -126t-176 -44zM197 -53l-69 41l453 777l69 -41zM389 76q106 0 166 72.5t60 208.5t-60 207.5t-166 71.5t-166 -72t-60 -207
t60 -208t166 -73zM421 773h-67l102 154h104z" />
    <glyph glyph-name="Otilde" unicode="&#xd5;" horiz-adv-x="779" 
d="M389 -8q-102 0 -176 44t-114 126t-40 194q0 113 40 194.5t114 125.5t176 44t176.5 -44t114.5 -125.5t40 -193.5q0 -113 -40.5 -195t-114.5 -126t-176 -44zM389 76q106 0 166 72.5t60 208.5t-60 207.5t-166 71.5t-166 -72t-60 -207t60 -208t166 -73zM221 790q0 62 27 93.5
t69 31.5q27 0 52 -14t47 -28.5t41 -14.5q22 0 34 15.5t12 38.5h51q0 -62 -27 -93.5t-69 -31.5q-27 0 -52 14t-47 28t-41 14q-22 0 -34 -15.5t-12 -37.5h-51z" />
    <glyph glyph-name="uni1E4C" unicode="&#x1e4c;" horiz-adv-x="779" 
d="M389 -8q-102 0 -176 44t-114 126t-40 194q0 113 40 194.5t114 125.5t176 44t176.5 -44t114.5 -125.5t40 -193.5q0 -113 -40.5 -195t-114.5 -126t-176 -44zM389 76q106 0 166 72.5t60 208.5t-60 207.5t-166 71.5t-166 -72t-60 -207t60 -208t166 -73zM221 790q0 62 27 93.5
t69 31.5q27 0 52 -14t47 -28.5t41 -14.5q22 0 34 15.5t12 38.5h51q0 -62 -27 -93.5t-69 -31.5q-27 0 -52 14t-47 28t-41 14q-22 0 -34 -15.5t-12 -37.5h-51zM421 935h-67l102 154h104z" />
    <glyph glyph-name="uni1E4E" unicode="&#x1e4e;" horiz-adv-x="779" 
d="M389 -8q-102 0 -176 44t-114 126t-40 194q0 113 40 194.5t114 125.5t176 44t176.5 -44t114.5 -125.5t40 -193.5q0 -113 -40.5 -195t-114.5 -126t-176 -44zM389 76q106 0 166 72.5t60 208.5t-60 207.5t-166 71.5t-166 -72t-60 -207t60 -208t166 -73zM221 790q0 62 27 93.5
t69 31.5q27 0 52 -14t47 -28.5t41 -14.5q22 0 34 15.5t12 38.5h51q0 -62 -27 -93.5t-69 -31.5q-27 0 -52 14t-47 28t-41 14q-22 0 -34 -15.5t-12 -37.5h-51zM425 1062h104v-99h-104v99zM246 1062h104v-99h-104v99z" />
    <glyph glyph-name="uni022C" unicode="&#x22c;" horiz-adv-x="779" 
d="M389 -8q-102 0 -176 44t-114 126t-40 194q0 113 40 194.5t114 125.5t176 44t176.5 -44t114.5 -125.5t40 -193.5q0 -113 -40.5 -195t-114.5 -126t-176 -44zM389 76q106 0 166 72.5t60 208.5t-60 207.5t-166 71.5t-166 -72t-60 -207t60 -208t166 -73zM221 790q0 62 27 93.5
t69 31.5q27 0 52 -14t47 -28.5t41 -14.5q22 0 34 15.5t12 38.5h51q0 -62 -27 -93.5t-69 -31.5q-27 0 -52 14t-47 28t-41 14q-22 0 -34 -15.5t-12 -37.5h-51zM234 977v71h307v-71h-307z" />
    <glyph glyph-name="OE" unicode="&#x152;" horiz-adv-x="1055" 
d="M552 0v72l-4 26v524l4 17v73h457v-83h-360v-225h340v-84h-340v-237h360v-83h-457zM572 560q-29 37 -75.5 56.5t-107.5 19.5q-108 0 -167 -73.5t-59 -205.5q0 -134 59.5 -207.5t166.5 -73.5q124 0 183 77v-91q-68 -70 -192 -70q-97 0 -169.5 45t-112 127t-39.5 192
q0 111 39.5 192.5t112 126.5t169.5 45q123 0 192 -67v-93z" />
    <glyph glyph-name="P" unicode="P" horiz-adv-x="658" 
d="M83 0v712h295q113 0 175.5 -54t62.5 -149q0 -93 -63 -148t-175 -55h-192v-306h-103zM186 388h182q74 0 111 31.5t37 89.5t-37 89t-111 31h-182v-241z" />
    <glyph glyph-name="Thorn" unicode="&#xde;" horiz-adv-x="658" 
d="M170 165v83h200q75 0 110.5 28t35.5 87q0 58 -35.5 85.5t-110.5 27.5h-200v83h213q111 0 172 -51.5t61 -144.5q0 -94 -61.5 -146t-171.5 -52h-213zM83 0v712h102v-712h-102z" />
    <glyph glyph-name="Q" unicode="Q" horiz-adv-x="779" 
d="M582 -191q-46 33 -88.5 83.5t-73.5 103.5l96 35q26 -51 62 -90t75 -72zM389 -8q-102 0 -176 44t-114 126t-40 194q0 113 40 194.5t114 125.5t176 44t176.5 -44t114.5 -125.5t40 -193.5q0 -113 -40.5 -195t-114.5 -126t-176 -44zM389 76q106 0 166 72.5t60 208.5
t-60 207.5t-166 71.5t-166 -72t-60 -207t60 -208t166 -73z" />
    <glyph glyph-name="R" unicode="R" horiz-adv-x="697" 
d="M83 0v712h293q118 0 180 -52t62 -149q0 -93 -63.5 -147t-177.5 -54l76 15q38 0 66.5 -21.5t45.5 -68.5l89 -235h-109l-89 237q-15 40 -43 53.5t-72 13.5h-156v-304h-102zM185 387h179q79 0 116.5 30.5t37.5 91.5t-37 90.5t-117 29.5h-179v-242z" />
    <glyph glyph-name="Racute" unicode="&#x154;" horiz-adv-x="697" 
d="M83 0v712h293q118 0 180 -52t62 -149q0 -93 -63.5 -147t-177.5 -54l76 15q38 0 66.5 -21.5t45.5 -68.5l89 -235h-109l-89 237q-15 40 -43 53.5t-72 13.5h-156v-304h-102zM185 387h179q79 0 116.5 30.5t37.5 91.5t-37 90.5t-117 29.5h-179v-242zM380 773h-67l102 154h104z
" />
    <glyph glyph-name="Rcaron" unicode="&#x158;" horiz-adv-x="697" 
d="M83 0v712h293q118 0 180 -52t62 -149q0 -93 -63.5 -147t-177.5 -54l76 15q38 0 66.5 -21.5t45.5 -68.5l89 -235h-109l-89 237q-15 40 -43 53.5t-72 13.5h-156v-304h-102zM185 387h179q79 0 116.5 30.5t37.5 91.5t-37 90.5t-117 29.5h-179v-242zM417 927h85l-124 -154h-63
l-124 154h85l71 -100z" />
    <glyph glyph-name="uni0156" unicode="&#x156;" horiz-adv-x="697" 
d="M83 0v712h293q118 0 180 -52t62 -149q0 -93 -63.5 -147t-177.5 -54l76 15q38 0 66.5 -21.5t45.5 -68.5l89 -235h-109l-89 237q-15 40 -43 53.5t-72 13.5h-156v-304h-102zM185 387h179q79 0 116.5 30.5t37.5 91.5t-37 90.5t-117 29.5h-179v-242zM404 -71v-60
q0 -40 -11 -73t-43 -62l-42 30q22 23 29.5 44t7.5 45l26 -16h-80v92h113z" />
    <glyph glyph-name="uni0210" unicode="&#x210;" horiz-adv-x="697" 
d="M83 0v712h293q118 0 180 -52t62 -149q0 -93 -63.5 -147t-177.5 -54l76 15q38 0 66.5 -21.5t45.5 -68.5l89 -235h-109l-89 237q-15 40 -43 53.5t-72 13.5h-156v-304h-102zM185 387h179q79 0 116.5 30.5t37.5 91.5t-37 90.5t-117 29.5h-179v-242zM383 773l-99 154h80
l72 -154h-53zM257 773l-99 154h79l73 -154h-53z" />
    <glyph glyph-name="uni1E5A" unicode="&#x1e5a;" horiz-adv-x="697" 
d="M83 0v712h293q118 0 180 -52t62 -149q0 -93 -63.5 -147t-177.5 -54l76 15q38 0 66.5 -21.5t45.5 -68.5l89 -235h-109l-89 237q-15 40 -43 53.5t-72 13.5h-156v-304h-102zM185 387h179q79 0 116.5 30.5t37.5 91.5t-37 90.5t-117 29.5h-179v-242zM294 -87h107v-102h-107
v102z" />
    <glyph glyph-name="uni0212" unicode="&#x212;" horiz-adv-x="697" 
d="M83 0v712h293q118 0 180 -52t62 -149q0 -93 -63.5 -147t-177.5 -54l76 15q38 0 66.5 -21.5t45.5 -68.5l89 -235h-109l-89 237q-15 40 -43 53.5t-72 13.5h-156v-304h-102zM185 387h179q79 0 116.5 30.5t37.5 91.5t-37 90.5t-117 29.5h-179v-242zM347 917q55 0 100.5 -25.5
t67.5 -82.5l-56 -24q-22 38 -50 51.5t-62 13.5t-62.5 -13.5t-50.5 -51.5l-56 24q23 57 68 82.5t101 25.5z" />
    <glyph glyph-name="uni1E5E" unicode="&#x1e5e;" horiz-adv-x="697" 
d="M83 0v712h293q118 0 180 -52t62 -149q0 -93 -63.5 -147t-177.5 -54l76 15q38 0 66.5 -21.5t45.5 -68.5l89 -235h-109l-89 237q-15 40 -43 53.5t-72 13.5h-156v-304h-102zM185 387h179q79 0 116.5 30.5t37.5 91.5t-37 90.5t-117 29.5h-179v-242zM194 -173v69h307v-69h-307
z" />
    <glyph glyph-name="S" unicode="S" horiz-adv-x="633" 
d="M316 -8q-55 0 -104 9.5t-91 29.5t-75 48l36 77q54 -42 109.5 -61t125.5 -19q80 0 124 30.5t44 84.5q0 33 -21 54t-59.5 34t-90.5 25q-56 12 -103 27.5t-81 38.5t-52.5 57t-18.5 83q0 61 33 109t92.5 74.5t140.5 26.5q50 0 96 -10t85 -29.5t69 -47.5l-38 -77
q-48 41 -100 60.5t-111 19.5q-77 0 -121 -32t-44 -89q0 -35 19 -56.5t55.5 -35.5t87.5 -26q57 -13 105 -28.5t84 -37t56 -54t20 -80.5q0 -62 -33 -108t-94 -71.5t-145 -25.5z" />
    <glyph glyph-name="Sacute" unicode="&#x15a;" horiz-adv-x="633" 
d="M316 -8q-55 0 -104 9.5t-91 29.5t-75 48l36 77q54 -42 109.5 -61t125.5 -19q80 0 124 30.5t44 84.5q0 33 -21 54t-59.5 34t-90.5 25q-56 12 -103 27.5t-81 38.5t-52.5 57t-18.5 83q0 61 33 109t92.5 74.5t140.5 26.5q50 0 96 -10t85 -29.5t69 -47.5l-38 -77
q-48 41 -100 60.5t-111 19.5q-77 0 -121 -32t-44 -89q0 -35 19 -56.5t55.5 -35.5t87.5 -26q57 -13 105 -28.5t84 -37t56 -54t20 -80.5q0 -62 -33 -108t-94 -71.5t-145 -25.5zM351 773h-67l102 154h104z" />
    <glyph glyph-name="uni1E64" unicode="&#x1e64;" horiz-adv-x="633" 
d="M316 -8q-55 0 -104 9.5t-91 29.5t-75 48l36 77q54 -42 109.5 -61t125.5 -19q80 0 124 30.5t44 84.5q0 33 -21 54t-59.5 34t-90.5 25q-56 12 -103 27.5t-81 38.5t-52.5 57t-18.5 83q0 61 33 109t92.5 74.5t140.5 26.5q50 0 96 -10t85 -29.5t69 -47.5l-38 -77
q-48 41 -100 60.5t-111 19.5q-77 0 -121 -32t-44 -89q0 -35 19 -56.5t55.5 -35.5t87.5 -26q57 -13 105 -28.5t84 -37t56 -54t20 -80.5q0 -62 -33 -108t-94 -71.5t-145 -25.5zM364 773h-67l102 154h104zM143 926h117v-107h-117v107z" />
    <glyph glyph-name="Scaron" unicode="&#x160;" horiz-adv-x="633" 
d="M316 -8q-55 0 -104 9.5t-91 29.5t-75 48l36 77q54 -42 109.5 -61t125.5 -19q80 0 124 30.5t44 84.5q0 33 -21 54t-59.5 34t-90.5 25q-56 12 -103 27.5t-81 38.5t-52.5 57t-18.5 83q0 61 33 109t92.5 74.5t140.5 26.5q50 0 96 -10t85 -29.5t69 -47.5l-38 -77
q-48 41 -100 60.5t-111 19.5q-77 0 -121 -32t-44 -89q0 -35 19 -56.5t55.5 -35.5t87.5 -26q57 -13 105 -28.5t84 -37t56 -54t20 -80.5q0 -62 -33 -108t-94 -71.5t-145 -25.5zM388 927h85l-124 -154h-63l-124 154h85l71 -100z" />
    <glyph glyph-name="uni1E66" unicode="&#x1e66;" horiz-adv-x="633" 
d="M316 -8q-55 0 -104 9.5t-91 29.5t-75 48l36 77q54 -42 109.5 -61t125.5 -19q80 0 124 30.5t44 84.5q0 33 -21 54t-59.5 34t-90.5 25q-56 12 -103 27.5t-81 38.5t-52.5 57t-18.5 83q0 61 33 109t92.5 74.5t140.5 26.5q50 0 96 -10t85 -29.5t69 -47.5l-38 -77
q-48 41 -100 60.5t-111 19.5q-77 0 -121 -32t-44 -89q0 -35 19 -56.5t55.5 -35.5t87.5 -26q57 -13 105 -28.5t84 -37t56 -54t20 -80.5q0 -62 -33 -108t-94 -71.5t-145 -25.5zM388 927h85l-124 -154h-63l-124 154h85l71 -100zM259 1066h117v-107h-117v107z" />
    <glyph glyph-name="Scedilla" unicode="&#x15e;" horiz-adv-x="633" 
d="M316 -8q-55 0 -104 9.5t-91 29.5t-75 48l36 77q54 -42 109.5 -61t125.5 -19q80 0 124 30.5t44 84.5q0 33 -21 54t-59.5 34t-90.5 25q-56 12 -103 27.5t-81 38.5t-52.5 57t-18.5 83q0 61 33 109t92.5 74.5t140.5 26.5q50 0 96 -10t85 -29.5t69 -47.5l-38 -77
q-48 41 -100 60.5t-111 19.5q-77 0 -121 -32t-44 -89q0 -35 19 -56.5t55.5 -35.5t87.5 -26q57 -13 105 -28.5t84 -37t56 -54t20 -80.5q0 -62 -33 -108t-94 -71.5t-145 -25.5zM313 -196q-21 0 -46 4.5t-45 14.5l13 48q22 -8 40.5 -11t35.5 -3q26 0 40 8.5t14 23.5
q0 25 -35 25q-12 0 -23 -2t-20 -6l-20 17l12 97h64l-9 -74l-29 4q13 4 26 6.5t25 2.5q32 0 55.5 -17.5t23.5 -52.5q0 -36 -31.5 -60.5t-90.5 -24.5z" />
    <glyph glyph-name="Scircumflex" unicode="&#x15c;" horiz-adv-x="633" 
d="M316 -8q-55 0 -104 9.5t-91 29.5t-75 48l36 77q54 -42 109.5 -61t125.5 -19q80 0 124 30.5t44 84.5q0 33 -21 54t-59.5 34t-90.5 25q-56 12 -103 27.5t-81 38.5t-52.5 57t-18.5 83q0 61 33 109t92.5 74.5t140.5 26.5q50 0 96 -10t85 -29.5t69 -47.5l-38 -77
q-48 41 -100 60.5t-111 19.5q-77 0 -121 -32t-44 -89q0 -35 19 -56.5t55.5 -35.5t87.5 -26q57 -13 105 -28.5t84 -37t56 -54t20 -80.5q0 -62 -33 -108t-94 -71.5t-145 -25.5zM247 773h-85l124 154h63l124 -154h-85l-70 99z" />
    <glyph glyph-name="uni0218" unicode="&#x218;" horiz-adv-x="633" 
d="M316 -8q-55 0 -104 9.5t-91 29.5t-75 48l36 77q54 -42 109.5 -61t125.5 -19q80 0 124 30.5t44 84.5q0 33 -21 54t-59.5 34t-90.5 25q-56 12 -103 27.5t-81 38.5t-52.5 57t-18.5 83q0 61 33 109t92.5 74.5t140.5 26.5q50 0 96 -10t85 -29.5t69 -47.5l-38 -77
q-48 41 -100 60.5t-111 19.5q-77 0 -121 -32t-44 -89q0 -35 19 -56.5t55.5 -35.5t87.5 -26q57 -13 105 -28.5t84 -37t56 -54t20 -80.5q0 -62 -33 -108t-94 -71.5t-145 -25.5zM374 -71v-60q0 -40 -11 -73t-43 -62l-42 30q22 23 29.5 44t7.5 45l26 -16h-80v92h113z" />
    <glyph glyph-name="uni1E60" unicode="&#x1e60;" horiz-adv-x="633" 
d="M316 -8q-55 0 -104 9.5t-91 29.5t-75 48l36 77q54 -42 109.5 -61t125.5 -19q80 0 124 30.5t44 84.5q0 33 -21 54t-59.5 34t-90.5 25q-56 12 -103 27.5t-81 38.5t-52.5 57t-18.5 83q0 61 33 109t92.5 74.5t140.5 26.5q50 0 96 -10t85 -29.5t69 -47.5l-38 -77
q-48 41 -100 60.5t-111 19.5q-77 0 -121 -32t-44 -89q0 -35 19 -56.5t55.5 -35.5t87.5 -26q57 -13 105 -28.5t84 -37t56 -54t20 -80.5q0 -62 -33 -108t-94 -71.5t-145 -25.5zM259 904h117v-107h-117v107z" />
    <glyph glyph-name="uni1E62" unicode="&#x1e62;" horiz-adv-x="633" 
d="M316 -8q-55 0 -104 9.5t-91 29.5t-75 48l36 77q54 -42 109.5 -61t125.5 -19q80 0 124 30.5t44 84.5q0 33 -21 54t-59.5 34t-90.5 25q-56 12 -103 27.5t-81 38.5t-52.5 57t-18.5 83q0 61 33 109t92.5 74.5t140.5 26.5q50 0 96 -10t85 -29.5t69 -47.5l-38 -77
q-48 41 -100 60.5t-111 19.5q-77 0 -121 -32t-44 -89q0 -35 19 -56.5t55.5 -35.5t87.5 -26q57 -13 105 -28.5t84 -37t56 -54t20 -80.5q0 -62 -33 -108t-94 -71.5t-145 -25.5zM264 -87h107v-102h-107v102z" />
    <glyph glyph-name="uni1E68" unicode="&#x1e68;" horiz-adv-x="633" 
d="M316 -8q-55 0 -104 9.5t-91 29.5t-75 48l36 77q54 -42 109.5 -61t125.5 -19q80 0 124 30.5t44 84.5q0 33 -21 54t-59.5 34t-90.5 25q-56 12 -103 27.5t-81 38.5t-52.5 57t-18.5 83q0 61 33 109t92.5 74.5t140.5 26.5q50 0 96 -10t85 -29.5t69 -47.5l-38 -77
q-48 41 -100 60.5t-111 19.5q-77 0 -121 -32t-44 -89q0 -35 19 -56.5t55.5 -35.5t87.5 -26q57 -13 105 -28.5t84 -37t56 -54t20 -80.5q0 -62 -33 -108t-94 -71.5t-145 -25.5zM264 -87h107v-102h-107v102zM259 904h117v-107h-117v107z" />
    <glyph glyph-name="uni1E9E" unicode="&#x1e9e;" horiz-adv-x="701" 
d="M83 0v457q0 128 71 195t206 67q73 0 126.5 -24t83 -67t29.5 -102q0 -62 -33.5 -105t-92.5 -58l4 12q82 -11 126.5 -58t44.5 -121q0 -59 -28 -104.5t-78 -72t-115 -26.5q-55 0 -101.5 15.5t-84.5 47.5l32 77q41 -30 76.5 -44t71.5 -13q60 0 93.5 33t33.5 91q0 60 -39 89.5
t-120 29.5h-121v84h93q67 0 102.5 30t35.5 86q0 54 -37.5 84.5t-103.5 30.5q-86 0 -129.5 -44.5t-43.5 -134.5v-455h-102z" />
    <glyph glyph-name="uni018F" unicode="&#x18f;" horiz-adv-x="757" 
d="M384 -8q-101 0 -174 43t-112 124.5t-39 196.5v47h579v-84h-502l27 38q-1 -135 56.5 -208t161.5 -73q102 0 157.5 73t55.5 208q0 134 -62.5 206t-178.5 72q-62 0 -116.5 -19.5t-102.5 -59.5l-37 77q31 27 72.5 47t89 30t96.5 10q105 0 182 -44t119 -125t42 -194
q0 -111 -38.5 -193t-109.5 -127t-166 -45z" />
    <glyph glyph-name="T" unicode="T" horiz-adv-x="610" 
d="M253 0v626h-241v86h586v-86h-241v-626h-104z" />
    <glyph glyph-name="Tbar" unicode="&#x166;" horiz-adv-x="610" 
d="M111 320v81h388v-81h-388zM253 0v626h-241v86h586v-86h-241v-626h-104z" />
    <glyph glyph-name="Tcaron" unicode="&#x164;" horiz-adv-x="610" 
d="M253 0v626h-241v86h586v-86h-241v-626h-104zM375 927h85l-124 -154h-63l-124 154h85l71 -100z" />
    <glyph glyph-name="uni0162" unicode="&#x162;" horiz-adv-x="610" 
d="M253 0v626h-241v86h586v-86h-241v-626h-104zM302 -196q-21 0 -46 4.5t-45 14.5l13 48q22 -8 40.5 -11t35.5 -3q26 0 40 8.5t14 23.5q0 25 -35 25q-12 0 -23 -2t-20 -6l-20 17l12 97h64l-9 -74l-29 4q13 4 26 6.5t25 2.5q32 0 55.5 -17.5t23.5 -52.5q0 -36 -31.5 -60.5
t-90.5 -24.5z" />
    <glyph glyph-name="uni021A" unicode="&#x21a;" horiz-adv-x="610" 
d="M253 0v626h-241v86h586v-86h-241v-626h-104zM361 -71v-60q0 -40 -11 -73t-43 -62l-42 30q22 23 29.5 44t7.5 45l26 -16h-80v92h113z" />
    <glyph glyph-name="uni1E6C" unicode="&#x1e6c;" horiz-adv-x="610" 
d="M253 0v626h-241v86h586v-86h-241v-626h-104zM251 -87h107v-102h-107v102z" />
    <glyph glyph-name="uni1E6E" unicode="&#x1e6e;" horiz-adv-x="610" 
d="M253 0v626h-241v86h586v-86h-241v-626h-104zM151 -173v69h307v-69h-307z" />
    <glyph glyph-name="U" unicode="U" horiz-adv-x="735" 
d="M368 -8q-142 0 -215.5 73.5t-73.5 217.5v429h101v-436q0 -99 47.5 -149.5t140.5 -50.5q91 0 138.5 51t47.5 149v436h103v-429q0 -143 -74 -217t-215 -74z" />
    <glyph glyph-name="Uacute" unicode="&#xda;" horiz-adv-x="735" 
d="M368 -8q-142 0 -215.5 73.5t-73.5 217.5v429h101v-436q0 -99 47.5 -149.5t140.5 -50.5q91 0 138.5 51t47.5 149v436h103v-429q0 -143 -74 -217t-215 -74zM401 773h-67l102 154h104z" />
    <glyph glyph-name="Ubreve" unicode="&#x16c;" horiz-adv-x="735" 
d="M368 -8q-142 0 -215.5 73.5t-73.5 217.5v429h101v-436q0 -99 47.5 -149.5t140.5 -50.5q91 0 138.5 51t47.5 149v436h103v-429q0 -143 -74 -217t-215 -74zM368 784q-56 0 -101.5 25t-67.5 83l56 24q22 -39 50.5 -52t62.5 -13t62 13t50 52l56 -24q-23 -58 -68 -83t-100 -25
z" />
    <glyph glyph-name="Ucircumflex" unicode="&#xdb;" horiz-adv-x="735" 
d="M368 -8q-142 0 -215.5 73.5t-73.5 217.5v429h101v-436q0 -99 47.5 -149.5t140.5 -50.5q91 0 138.5 51t47.5 149v436h103v-429q0 -143 -74 -217t-215 -74zM297 773h-85l124 154h63l124 -154h-85l-70 99z" />
    <glyph glyph-name="uni0214" unicode="&#x214;" horiz-adv-x="735" 
d="M368 -8q-142 0 -215.5 73.5t-73.5 217.5v429h101v-436q0 -99 47.5 -149.5t140.5 -50.5q91 0 138.5 51t47.5 149v436h103v-429q0 -143 -74 -217t-215 -74zM404 773l-99 154h80l72 -154h-53zM278 773l-99 154h79l73 -154h-53z" />
    <glyph glyph-name="Udieresis" unicode="&#xdc;" horiz-adv-x="735" 
d="M368 -8q-142 0 -215.5 73.5t-73.5 217.5v429h101v-436q0 -99 47.5 -149.5t140.5 -50.5q91 0 138.5 51t47.5 149v436h103v-429q0 -143 -74 -217t-215 -74zM405 900h104v-99h-104v99zM226 900h104v-99h-104v99z" />
    <glyph glyph-name="uni1EE4" unicode="&#x1ee4;" horiz-adv-x="735" 
d="M368 -8q-142 0 -215.5 73.5t-73.5 217.5v429h101v-436q0 -99 47.5 -149.5t140.5 -50.5q91 0 138.5 51t47.5 149v436h103v-429q0 -143 -74 -217t-215 -74zM314 -87h107v-102h-107v102z" />
    <glyph glyph-name="Ugrave" unicode="&#xd9;" horiz-adv-x="735" 
d="M368 -8q-142 0 -215.5 73.5t-73.5 217.5v429h101v-436q0 -99 47.5 -149.5t140.5 -50.5q91 0 138.5 51t47.5 149v436h103v-429q0 -143 -74 -217t-215 -74zM334 773l-139 154h104l102 -154h-67z" />
    <glyph glyph-name="uni1EE6" unicode="&#x1ee6;" horiz-adv-x="735" 
d="M368 -8q-142 0 -215.5 73.5t-73.5 217.5v429h101v-436q0 -99 47.5 -149.5t140.5 -50.5q91 0 138.5 51t47.5 149v436h103v-429q0 -143 -74 -217t-215 -74zM398 784v-11h-60v19q0 17 10 27t23.5 16t23.5 12t10 14q0 9 -9.5 14t-29.5 5q-13 0 -27.5 -2.5t-32.5 -9.5l-16 46
q18 8 40 12.5t46 4.5q48 0 74.5 -18t26.5 -46q0 -20 -12 -31t-27.5 -18t-27.5 -14.5t-12 -19.5z" />
    <glyph glyph-name="Uhorn" unicode="&#x1af;" horiz-adv-x="735" 
d="M685 837h89v-30q0 -69 -40.5 -109.5t-111.5 -42.5l35 36v-408q0 -143 -74 -217t-215 -74q-142 0 -215.5 73.5t-73.5 217.5v429h101v-436q0 -99 47.5 -149.5t140.5 -50.5q91 0 138.5 51t47.5 149v436h30q55 1 78 25t23 84v16z" />
    <glyph glyph-name="uni1EE8" unicode="&#x1ee8;" horiz-adv-x="735" 
d="M685 837h89v-30q0 -69 -40.5 -109.5t-111.5 -42.5l35 36v-408q0 -143 -74 -217t-215 -74q-142 0 -215.5 73.5t-73.5 217.5v429h101v-436q0 -99 47.5 -149.5t140.5 -50.5q91 0 138.5 51t47.5 149v436h30q55 1 78 25t23 84v16zM401 773h-67l102 154h104z" />
    <glyph glyph-name="uni1EF0" unicode="&#x1ef0;" horiz-adv-x="735" 
d="M685 837h89v-30q0 -69 -40.5 -109.5t-111.5 -42.5l35 36v-408q0 -143 -74 -217t-215 -74q-142 0 -215.5 73.5t-73.5 217.5v429h101v-436q0 -99 47.5 -149.5t140.5 -50.5q91 0 138.5 51t47.5 149v436h30q55 1 78 25t23 84v16zM314 -87h107v-102h-107v102z" />
    <glyph glyph-name="uni1EEA" unicode="&#x1eea;" horiz-adv-x="735" 
d="M685 837h89v-30q0 -69 -40.5 -109.5t-111.5 -42.5l35 36v-408q0 -143 -74 -217t-215 -74q-142 0 -215.5 73.5t-73.5 217.5v429h101v-436q0 -99 47.5 -149.5t140.5 -50.5q91 0 138.5 51t47.5 149v436h30q55 1 78 25t23 84v16zM334 773l-139 154h104l102 -154h-67z" />
    <glyph glyph-name="uni1EEC" unicode="&#x1eec;" horiz-adv-x="735" 
d="M685 837h89v-30q0 -69 -40.5 -109.5t-111.5 -42.5l35 36v-408q0 -143 -74 -217t-215 -74q-142 0 -215.5 73.5t-73.5 217.5v429h101v-436q0 -99 47.5 -149.5t140.5 -50.5q91 0 138.5 51t47.5 149v436h30q55 1 78 25t23 84v16zM398 784v-11h-60v19q0 17 10 27t23.5 16
t23.5 12t10 14q0 9 -9.5 14t-29.5 5q-13 0 -27.5 -2.5t-32.5 -9.5l-16 46q18 8 40 12.5t46 4.5q48 0 74.5 -18t26.5 -46q0 -20 -12 -31t-27.5 -18t-27.5 -14.5t-12 -19.5z" />
    <glyph glyph-name="uni1EEE" unicode="&#x1eee;" horiz-adv-x="735" 
d="M685 837h89v-30q0 -69 -40.5 -109.5t-111.5 -42.5l35 36v-408q0 -143 -74 -217t-215 -74q-142 0 -215.5 73.5t-73.5 217.5v429h101v-436q0 -99 47.5 -149.5t140.5 -50.5q91 0 138.5 51t47.5 149v436h30q55 1 78 25t23 84v16zM201 790q0 62 27 93.5t69 31.5q27 0 52 -14
t47 -28.5t41 -14.5q22 0 34 15.5t12 38.5h51q0 -62 -27 -93.5t-69 -31.5q-27 0 -52 14t-47 28t-41 14q-22 0 -34 -15.5t-12 -37.5h-51z" />
    <glyph glyph-name="Uhungarumlaut" unicode="&#x170;" horiz-adv-x="735" 
d="M368 -8q-142 0 -215.5 73.5t-73.5 217.5v429h101v-436q0 -99 47.5 -149.5t140.5 -50.5q91 0 138.5 51t47.5 149v436h103v-429q0 -143 -74 -217t-215 -74zM404 773l73 154h79l-99 -154h-53zM278 773l72 154h80l-99 -154h-53z" />
    <glyph glyph-name="uni0216" unicode="&#x216;" horiz-adv-x="735" 
d="M368 -8q-142 0 -215.5 73.5t-73.5 217.5v429h101v-436q0 -99 47.5 -149.5t140.5 -50.5q91 0 138.5 51t47.5 149v436h103v-429q0 -143 -74 -217t-215 -74zM368 917q55 0 100.5 -25.5t67.5 -82.5l-56 -24q-22 38 -50 51.5t-62 13.5t-62.5 -13.5t-50.5 -51.5l-56 24
q23 57 68 82.5t101 25.5z" />
    <glyph glyph-name="Umacron" unicode="&#x16a;" horiz-adv-x="735" 
d="M368 -8q-142 0 -215.5 73.5t-73.5 217.5v429h101v-436q0 -99 47.5 -149.5t140.5 -50.5q91 0 138.5 51t47.5 149v436h103v-429q0 -143 -74 -217t-215 -74zM214 815v71h307v-71h-307z" />
    <glyph glyph-name="uni1E7A" unicode="&#x1e7a;" horiz-adv-x="735" 
d="M368 -8q-142 0 -215.5 73.5t-73.5 217.5v429h101v-436q0 -99 47.5 -149.5t140.5 -50.5q91 0 138.5 51t47.5 149v436h103v-429q0 -143 -74 -217t-215 -74zM214 815v71h307v-71h-307zM405 1062h104v-99h-104v99zM226 1062h104v-99h-104v99z" />
    <glyph glyph-name="Uogonek" unicode="&#x172;" horiz-adv-x="735" 
d="M554 712h103v-429q0 -112 -45 -182t-134 -95q-38 -12 -56.5 -32t-18.5 -49t17 -44.5t47 -15.5q14 0 28.5 4t29.5 12l16 -55q-39 -22 -90 -22q-53 0 -87 30.5t-34 76.5q0 33 17 59t49 41l11 -19h-39q-142 0 -215.5 73.5t-73.5 217.5v429h101v-436q0 -99 47.5 -149.5
t140.5 -50.5q91 0 138.5 51t47.5 149v436z" />
    <glyph glyph-name="Uring" unicode="&#x16e;" horiz-adv-x="735" 
d="M368 -8q-142 0 -215.5 73.5t-73.5 217.5v429h101v-436q0 -99 47.5 -149.5t140.5 -50.5q91 0 138.5 51t47.5 149v436h103v-429q0 -143 -74 -217t-215 -74zM368 768q-44 0 -74.5 29.5t-30.5 72.5t30.5 73t74.5 30q43 0 73.5 -30t30.5 -73t-30.5 -72.5t-73.5 -29.5zM368 821
q20 0 33.5 14t13.5 35t-13.5 35t-33.5 14q-21 0 -34.5 -14t-13.5 -35t13.5 -35t34.5 -14z" />
    <glyph glyph-name="Utilde" unicode="&#x168;" horiz-adv-x="735" 
d="M368 -8q-142 0 -215.5 73.5t-73.5 217.5v429h101v-436q0 -99 47.5 -149.5t140.5 -50.5q91 0 138.5 51t47.5 149v436h103v-429q0 -143 -74 -217t-215 -74zM201 790q0 62 27 93.5t69 31.5q27 0 52 -14t47 -28.5t41 -14.5q22 0 34 15.5t12 38.5h51q0 -62 -27 -93.5
t-69 -31.5q-27 0 -52 14t-47 28t-41 14q-22 0 -34 -15.5t-12 -37.5h-51z" />
    <glyph glyph-name="uni1E78" unicode="&#x1e78;" horiz-adv-x="735" 
d="M368 -8q-142 0 -215.5 73.5t-73.5 217.5v429h101v-436q0 -99 47.5 -149.5t140.5 -50.5q91 0 138.5 51t47.5 149v436h103v-429q0 -143 -74 -217t-215 -74zM201 790q0 62 27 93.5t69 31.5q27 0 52 -14t47 -28.5t41 -14.5q22 0 34 15.5t12 38.5h51q0 -62 -27 -93.5
t-69 -31.5q-27 0 -52 14t-47 28t-41 14q-22 0 -34 -15.5t-12 -37.5h-51zM401 935h-67l102 154h104z" />
    <glyph glyph-name="V" unicode="V" horiz-adv-x="708" 
d="M311 0l-314 712h109l267 -624h-36l269 624h106l-314 -712h-87z" />
    <glyph glyph-name="W" unicode="W" horiz-adv-x="1116" 
d="M280 0l-251 712h105l208 -616h-34l214 616l76 -1l210 -615h-32l210 616h100l-250 -712h-86l-203 583h23l-205 -583h-85z" />
    <glyph glyph-name="Wacute" unicode="&#x1e82;" horiz-adv-x="1116" 
d="M280 0l-251 712h105l208 -616h-34l214 616l76 -1l210 -615h-32l210 616h100l-250 -712h-86l-203 583h23l-205 -583h-85zM590 773h-67l102 154h104z" />
    <glyph glyph-name="Wcircumflex" unicode="&#x174;" horiz-adv-x="1116" 
d="M280 0l-251 712h105l208 -616h-34l214 616l76 -1l210 -615h-32l210 616h100l-250 -712h-86l-203 583h23l-205 -583h-85zM486 773h-85l124 154h63l124 -154h-85l-70 99z" />
    <glyph glyph-name="Wdieresis" unicode="&#x1e84;" horiz-adv-x="1116" 
d="M280 0l-251 712h105l208 -616h-34l214 616l76 -1l210 -615h-32l210 616h100l-250 -712h-86l-203 583h23l-205 -583h-85zM594 900h104v-99h-104v99zM415 900h104v-99h-104v99z" />
    <glyph glyph-name="Wgrave" unicode="&#x1e80;" horiz-adv-x="1116" 
d="M280 0l-251 712h105l208 -616h-34l214 616l76 -1l210 -615h-32l210 616h100l-250 -712h-86l-203 583h23l-205 -583h-85zM523 773l-139 154h104l102 -154h-67z" />
    <glyph glyph-name="X" unicode="X" horiz-adv-x="660" 
d="M122 0h-122l271 364l60 76l197 272h122l-261 -349l-59 -77zM539 0l-209 286l-59 78l-259 348h121l198 -272l58 -77l271 -363h-121z" />
    <glyph glyph-name="Y" unicode="Y" horiz-adv-x="617" 
d="M256 0v320l23 -67l-306 459h119l233 -362h-32l233 362h118l-305 -459l21 67v-320h-104z" />
    <glyph glyph-name="Yacute" unicode="&#xdd;" horiz-adv-x="617" 
d="M256 0v320l23 -67l-306 459h119l233 -362h-32l233 362h118l-305 -459l21 67v-320h-104zM341 773h-67l102 154h104z" />
    <glyph glyph-name="Ycircumflex" unicode="&#x176;" horiz-adv-x="617" 
d="M256 0v320l23 -67l-306 459h119l233 -362h-32l233 362h118l-305 -459l21 67v-320h-104zM237 773h-85l124 154h63l124 -154h-85l-70 99z" />
    <glyph glyph-name="Ydieresis" unicode="&#x178;" horiz-adv-x="617" 
d="M256 0v320l23 -67l-306 459h119l233 -362h-32l233 362h118l-305 -459l21 67v-320h-104zM345 900h104v-99h-104v99zM166 900h104v-99h-104v99z" />
    <glyph glyph-name="uni1E8E" unicode="&#x1e8e;" horiz-adv-x="617" 
d="M256 0v320l23 -67l-306 459h119l233 -362h-32l233 362h118l-305 -459l21 67v-320h-104zM249 904h117v-107h-117v107z" />
    <glyph glyph-name="uni1EF4" unicode="&#x1ef4;" horiz-adv-x="617" 
d="M256 0v320l23 -67l-306 459h119l233 -362h-32l233 362h118l-305 -459l21 67v-320h-104zM254 -87h107v-102h-107v102z" />
    <glyph glyph-name="Ygrave" unicode="&#x1ef2;" horiz-adv-x="617" 
d="M256 0v320l23 -67l-306 459h119l233 -362h-32l233 362h118l-305 -459l21 67v-320h-104zM274 773l-139 154h104l102 -154h-67z" />
    <glyph glyph-name="uni1EF6" unicode="&#x1ef6;" horiz-adv-x="617" 
d="M256 0v320l23 -67l-306 459h119l233 -362h-32l233 362h118l-305 -459l21 67v-320h-104zM338 784v-11h-60v19q0 17 10 27t23.5 16t23.5 12t10 14q0 9 -9.5 14t-29.5 5q-13 0 -27.5 -2.5t-32.5 -9.5l-16 46q18 8 40 12.5t46 4.5q48 0 74.5 -18t26.5 -46q0 -20 -12 -31
t-27.5 -18t-27.5 -14.5t-12 -19.5z" />
    <glyph glyph-name="uni0232" unicode="&#x232;" horiz-adv-x="617" 
d="M256 0v320l23 -67l-306 459h119l233 -362h-32l233 362h118l-305 -459l21 67v-320h-104zM154 815v71h307v-71h-307z" />
    <glyph glyph-name="uni1EF8" unicode="&#x1ef8;" horiz-adv-x="617" 
d="M256 0v320l23 -67l-306 459h119l233 -362h-32l233 362h118l-305 -459l21 67v-320h-104zM141 790q0 62 27 93.5t69 31.5q27 0 52 -14t47 -28.5t41 -14.5q22 0 34 15.5t12 38.5h51q0 -62 -27 -93.5t-69 -31.5q-27 0 -52 14t-47 28t-41 14q-22 0 -34 -15.5t-12 -37.5h-51z
" />
    <glyph glyph-name="Z" unicode="Z" horiz-adv-x="602" 
d="M47 0v76l419 594l-2 -43h-417v85h507v-75l-420 -595l2 43h428v-85h-517z" />
    <glyph glyph-name="Zacute" unicode="&#x179;" horiz-adv-x="602" 
d="M47 0v76l419 594l-2 -43h-417v85h507v-75l-420 -595l2 43h428v-85h-517zM333 773h-67l102 154h104z" />
    <glyph glyph-name="Zcaron" unicode="&#x17d;" horiz-adv-x="602" 
d="M47 0v76l419 594l-2 -43h-417v85h507v-75l-420 -595l2 43h428v-85h-517zM370 927h85l-124 -154h-63l-124 154h85l71 -100z" />
    <glyph glyph-name="Zdotaccent" unicode="&#x17b;" horiz-adv-x="602" 
d="M47 0v76l419 594l-2 -43h-417v85h507v-75l-420 -595l2 43h428v-85h-517zM241 904h117v-107h-117v107z" />
    <glyph glyph-name="uni1E92" unicode="&#x1e92;" horiz-adv-x="602" 
d="M47 0v76l419 594l-2 -43h-417v85h507v-75l-420 -595l2 43h428v-85h-517zM249 -87h107v-102h-107v102z" />
    <glyph glyph-name="Iacute_J.loclNLD" horiz-adv-x="613" 
d="M83 0v712h103v-712h-103zM168 773h-67l102 154h104zM266 -178v87q63 -11 98 -6t49 32.5t14 83.5v693h103v-693q0 -85 -25 -134t-83 -64t-156 1zM511 773h-67l102 154h104z" />
    <glyph glyph-name="a" unicode="a" horiz-adv-x="609" 
d="M268 -7q-67 0 -117.5 31.5t-78 90t-27.5 137.5t28 138.5t78.5 92.5t116.5 33q67 0 114.5 -32.5t64.5 -92.5l-12 -8v121h100v-504h-100v123l12 -5q-17 -60 -64.5 -92.5t-114.5 -32.5zM292 73q68 0 105.5 47t37.5 134t-37.5 134t-105.5 47q-69 0 -107.5 -48.5t-38.5 -134.5
t38.5 -132.5t107.5 -46.5z" />
    <glyph glyph-name="aacute" unicode="&#xe1;" horiz-adv-x="609" 
d="M268 -7q-67 0 -117.5 31.5t-78 90t-27.5 137.5t28 138.5t78.5 92.5t116.5 33q67 0 114.5 -32.5t64.5 -92.5l-12 -8v121h100v-504h-100v123l12 -5q-17 -60 -64.5 -92.5t-114.5 -32.5zM292 73q68 0 105.5 47t37.5 134t-37.5 134t-105.5 47q-69 0 -107.5 -48.5t-38.5 -134.5
t38.5 -132.5t107.5 -46.5zM338 569h-67l99 205h110z" />
    <glyph glyph-name="abreve" unicode="&#x103;" horiz-adv-x="609" 
d="M268 -7q-67 0 -117.5 31.5t-78 90t-27.5 137.5t28 138.5t78.5 92.5t116.5 33q67 0 114.5 -32.5t64.5 -92.5l-12 -8v121h100v-504h-100v123l12 -5q-17 -60 -64.5 -92.5t-114.5 -32.5zM292 73q68 0 105.5 47t37.5 134t-37.5 134t-105.5 47q-69 0 -107.5 -48.5t-38.5 -134.5
t38.5 -132.5t107.5 -46.5zM305 597q-37 0 -71 13.5t-61 43t-41 76.5l56 24q24 -48 53.5 -67.5t63.5 -19.5t63 19.5t53 67.5l56 -24q-14 -47 -40.5 -76.5t-61 -43t-70.5 -13.5z" />
    <glyph glyph-name="uni1EAF" unicode="&#x1eaf;" horiz-adv-x="609" 
d="M268 -7q-67 0 -117.5 31.5t-78 90t-27.5 137.5t28 138.5t78.5 92.5t116.5 33q67 0 114.5 -32.5t64.5 -92.5l-12 -8v121h100v-504h-100v123l12 -5q-17 -60 -64.5 -92.5t-114.5 -32.5zM292 73q68 0 105.5 47t37.5 134t-37.5 134t-105.5 47q-69 0 -107.5 -48.5t-38.5 -134.5
t38.5 -132.5t107.5 -46.5zM305 564q-56 0 -101.5 25.5t-67.5 82.5l49 21q22 -39 53.5 -53.5t66.5 -14.5t66 14.5t53 53.5l49 -21q-23 -57 -68 -82.5t-100 -25.5zM337 674h-65l101 143h99z" />
    <glyph glyph-name="uni1EB7" unicode="&#x1eb7;" horiz-adv-x="609" 
d="M268 -7q-67 0 -117.5 31.5t-78 90t-27.5 137.5t28 138.5t78.5 92.5t116.5 33q67 0 114.5 -32.5t64.5 -92.5l-12 -8v121h100v-504h-100v123l12 -5q-17 -60 -64.5 -92.5t-114.5 -32.5zM292 73q68 0 105.5 47t37.5 134t-37.5 134t-105.5 47q-69 0 -107.5 -48.5t-38.5 -134.5
t38.5 -132.5t107.5 -46.5zM251 -87h107v-102h-107v102zM305 597q-37 0 -71 13.5t-61 43t-41 76.5l56 24q24 -48 53.5 -67.5t63.5 -19.5t63 19.5t53 67.5l56 -24q-14 -47 -40.5 -76.5t-61 -43t-70.5 -13.5z" />
    <glyph glyph-name="uni1EB1" unicode="&#x1eb1;" horiz-adv-x="609" 
d="M268 -7q-67 0 -117.5 31.5t-78 90t-27.5 137.5t28 138.5t78.5 92.5t116.5 33q67 0 114.5 -32.5t64.5 -92.5l-12 -8v121h100v-504h-100v123l12 -5q-17 -60 -64.5 -92.5t-114.5 -32.5zM292 73q68 0 105.5 47t37.5 134t-37.5 134t-105.5 47q-69 0 -107.5 -48.5t-38.5 -134.5
t38.5 -132.5t107.5 -46.5zM305 564q-56 0 -101 25.5t-68 82.5l49 21q22 -39 53.5 -53.5t66.5 -14.5t66 14.5t53 53.5l49 -21q-22 -57 -67.5 -82.5t-100.5 -25.5zM272 674l-135 143h99l101 -143h-65z" />
    <glyph glyph-name="uni1EB3" unicode="&#x1eb3;" horiz-adv-x="609" 
d="M268 -7q-67 0 -117.5 31.5t-78 90t-27.5 137.5t28 138.5t78.5 92.5t116.5 33q67 0 114.5 -32.5t64.5 -92.5l-12 -8v121h100v-504h-100v123l12 -5q-17 -60 -64.5 -92.5t-114.5 -32.5zM292 73q68 0 105.5 47t37.5 134t-37.5 134t-105.5 47q-69 0 -107.5 -48.5t-38.5 -134.5
t38.5 -132.5t107.5 -46.5zM305 564q-56 0 -101 25.5t-68 82.5l49 21q22 -39 53.5 -53.5t66.5 -14.5t66 14.5t53 53.5l49 -21q-22 -57 -67.5 -82.5t-100.5 -25.5zM335 683v-9h-60v18q0 17 10 26.5t23.5 14.5t23.5 9.5t10 11.5t-9.5 12t-29.5 5q-13 0 -27.5 -2.5t-32.5 -9.5
l-16 46q18 8 40 12.5t46 4.5q48 0 74.5 -17.5t26.5 -45.5q0 -18 -12 -28.5t-27.5 -16.5t-27.5 -12.5t-12 -18.5z" />
    <glyph glyph-name="uni1EB5" unicode="&#x1eb5;" horiz-adv-x="609" 
d="M268 -7q-67 0 -117.5 31.5t-78 90t-27.5 137.5t28 138.5t78.5 92.5t116.5 33q67 0 114.5 -32.5t64.5 -92.5l-12 -8v121h100v-504h-100v123l12 -5q-17 -60 -64.5 -92.5t-114.5 -32.5zM292 73q68 0 105.5 47t37.5 134t-37.5 134t-105.5 47q-69 0 -107.5 -48.5t-38.5 -134.5
t38.5 -132.5t107.5 -46.5zM305 564q-56 0 -101 25.5t-68 82.5l49 21q22 -39 53.5 -53.5t66.5 -14.5t66 14.5t53 53.5l49 -21q-22 -57 -67.5 -82.5t-100.5 -25.5zM138 720q0 30 12.5 54t34 37t49.5 13q27 0 52 -12t47 -23.5t41 -11.5q22 0 34 12.5t12 31.5h51
q0 -32 -12.5 -55t-34 -36t-49.5 -13q-27 0 -52 11.5t-47 23t-41 11.5q-22 0 -34 -12.5t-12 -30.5h-51z" />
    <glyph glyph-name="uni01CE" unicode="&#x1ce;" horiz-adv-x="609" 
d="M268 -7q-67 0 -117.5 31.5t-78 90t-27.5 137.5t28 138.5t78.5 92.5t116.5 33q67 0 114.5 -32.5t64.5 -92.5l-12 -8v121h100v-504h-100v123l12 -5q-17 -60 -64.5 -92.5t-114.5 -32.5zM292 73q68 0 105.5 47t37.5 134t-37.5 134t-105.5 47q-69 0 -107.5 -48.5t-38.5 -134.5
t38.5 -132.5t107.5 -46.5zM373 774h87l-122 -205h-67l-122 205h87l69 -138z" />
    <glyph glyph-name="acircumflex" unicode="&#xe2;" horiz-adv-x="609" 
d="M268 -7q-67 0 -117.5 31.5t-78 90t-27.5 137.5t28 138.5t78.5 92.5t116.5 33q67 0 114.5 -32.5t64.5 -92.5l-12 -8v121h100v-504h-100v123l12 -5q-17 -60 -64.5 -92.5t-114.5 -32.5zM292 73q68 0 105.5 47t37.5 134t-37.5 134t-105.5 47q-69 0 -107.5 -48.5t-38.5 -134.5
t38.5 -132.5t107.5 -46.5zM236 569h-87l122 205h67l122 -205h-87l-68 136z" />
    <glyph glyph-name="uni1EA5" unicode="&#x1ea5;" horiz-adv-x="609" 
d="M268 -7q-67 0 -117.5 31.5t-78 90t-27.5 137.5t28 138.5t78.5 92.5t116.5 33q67 0 114.5 -32.5t64.5 -92.5l-12 -8v121h100v-504h-100v123l12 -5q-17 -60 -64.5 -92.5t-114.5 -32.5zM292 73q68 0 105.5 47t37.5 134t-37.5 134t-105.5 47q-69 0 -107.5 -48.5t-38.5 -134.5
t38.5 -132.5t107.5 -46.5zM234 569h-85l124 146h63l124 -146h-85l-70 92zM449 674h-56l86 143h97z" />
    <glyph glyph-name="uni1EAD" unicode="&#x1ead;" horiz-adv-x="609" 
d="M268 -7q-67 0 -117.5 31.5t-78 90t-27.5 137.5t28 138.5t78.5 92.5t116.5 33q67 0 114.5 -32.5t64.5 -92.5l-12 -8v121h100v-504h-100v123l12 -5q-17 -60 -64.5 -92.5t-114.5 -32.5zM292 73q68 0 105.5 47t37.5 134t-37.5 134t-105.5 47q-69 0 -107.5 -48.5t-38.5 -134.5
t38.5 -132.5t107.5 -46.5zM251 -87h107v-102h-107v102zM236 569h-87l122 205h67l122 -205h-87l-68 136z" />
    <glyph glyph-name="uni1EA7" unicode="&#x1ea7;" horiz-adv-x="609" 
d="M268 -7q-67 0 -117.5 31.5t-78 90t-27.5 137.5t28 138.5t78.5 92.5t116.5 33q67 0 114.5 -32.5t64.5 -92.5l-12 -8v121h100v-504h-100v123l12 -5q-17 -60 -64.5 -92.5t-114.5 -32.5zM292 73q68 0 105.5 47t37.5 134t-37.5 134t-105.5 47q-69 0 -107.5 -48.5t-38.5 -134.5
t38.5 -132.5t107.5 -46.5zM234 569h-85l124 146h63l124 -146h-85l-70 92zM436 674l-116 143h96l76 -143h-56z" />
    <glyph glyph-name="uni1EA9" unicode="&#x1ea9;" horiz-adv-x="609" 
d="M268 -7q-67 0 -117.5 31.5t-78 90t-27.5 137.5t28 138.5t78.5 92.5t116.5 33q67 0 114.5 -32.5t64.5 -92.5l-12 -8v121h100v-504h-100v123l12 -5q-17 -60 -64.5 -92.5t-114.5 -32.5zM292 73q68 0 105.5 47t37.5 134t-37.5 134t-105.5 47q-69 0 -107.5 -48.5t-38.5 -134.5
t38.5 -132.5t107.5 -46.5zM234 569h-85l124 146h63l124 -146h-85l-70 92zM452 683v-9h-60v18q0 17 10 26.5t23 14.5t23.5 9.5t10.5 11.5t-9.5 12t-29.5 5q-13 0 -28 -2.5t-32 -9.5l-16 46q18 8 40 12.5t46 4.5q48 0 75 -17.5t27 -45.5q0 -18 -12 -28.5t-28 -16.5t-28 -12.5
t-12 -18.5z" />
    <glyph glyph-name="uni1EAB" unicode="&#x1eab;" horiz-adv-x="609" 
d="M268 -7q-67 0 -117.5 31.5t-78 90t-27.5 137.5t28 138.5t78.5 92.5t116.5 33q67 0 114.5 -32.5t64.5 -92.5l-12 -8v121h100v-504h-100v123l12 -5q-17 -60 -64.5 -92.5t-114.5 -32.5zM292 73q68 0 105.5 47t37.5 134t-37.5 134t-105.5 47q-69 0 -107.5 -48.5t-38.5 -134.5
t38.5 -132.5t107.5 -46.5zM234 569h-85l124 146h63l124 -146h-85l-70 92zM138 730q0 30 12.5 53t34 36t49.5 13q27 0 52 -10t47 -20t41 -10q22 0 34 12t12 28h51q0 -29 -12.5 -51.5t-34 -36t-49.5 -13.5q-27 0 -52 10.5t-47 20t-41 9.5q-22 0 -34 -12t-12 -29h-51z" />
    <glyph glyph-name="uni0201" unicode="&#x201;" horiz-adv-x="609" 
d="M268 -7q-67 0 -117.5 31.5t-78 90t-27.5 137.5t28 138.5t78.5 92.5t116.5 33q67 0 114.5 -32.5t64.5 -92.5l-12 -8v121h100v-504h-100v123l12 -5q-17 -60 -64.5 -92.5t-114.5 -32.5zM292 73q68 0 105.5 47t37.5 134t-37.5 134t-105.5 47q-69 0 -107.5 -48.5t-38.5 -134.5
t38.5 -132.5t107.5 -46.5zM344 569l-80 205h85l43 -205h-48zM217 569l-80 205h86l42 -205h-48z" />
    <glyph glyph-name="adieresis" unicode="&#xe4;" horiz-adv-x="609" 
d="M268 -7q-67 0 -117.5 31.5t-78 90t-27.5 137.5t28 138.5t78.5 92.5t116.5 33q67 0 114.5 -32.5t64.5 -92.5l-12 -8v121h100v-504h-100v123l12 -5q-17 -60 -64.5 -92.5t-114.5 -32.5zM292 73q68 0 105.5 47t37.5 134t-37.5 134t-105.5 47q-69 0 -107.5 -48.5t-38.5 -134.5
t38.5 -132.5t107.5 -46.5zM342 721h104v-100h-104v100zM163 721h104v-100h-104v100z" />
    <glyph glyph-name="uni0227" unicode="&#x227;" horiz-adv-x="609" 
d="M268 -7q-67 0 -117.5 31.5t-78 90t-27.5 137.5t28 138.5t78.5 92.5t116.5 33q67 0 114.5 -32.5t64.5 -92.5l-12 -8v121h100v-504h-100v123l12 -5q-17 -60 -64.5 -92.5t-114.5 -32.5zM292 73q68 0 105.5 47t37.5 134t-37.5 134t-105.5 47q-69 0 -107.5 -48.5t-38.5 -134.5
t38.5 -132.5t107.5 -46.5zM246 724h117v-106h-117v106z" />
    <glyph glyph-name="uni1EA1" unicode="&#x1ea1;" horiz-adv-x="609" 
d="M268 -7q-67 0 -117.5 31.5t-78 90t-27.5 137.5t28 138.5t78.5 92.5t116.5 33q67 0 114.5 -32.5t64.5 -92.5l-12 -8v121h100v-504h-100v123l12 -5q-17 -60 -64.5 -92.5t-114.5 -32.5zM292 73q68 0 105.5 47t37.5 134t-37.5 134t-105.5 47q-69 0 -107.5 -48.5t-38.5 -134.5
t38.5 -132.5t107.5 -46.5zM251 -87h107v-102h-107v102z" />
    <glyph glyph-name="agrave" unicode="&#xe0;" horiz-adv-x="609" 
d="M268 -7q-67 0 -117.5 31.5t-78 90t-27.5 137.5t28 138.5t78.5 92.5t116.5 33q67 0 114.5 -32.5t64.5 -92.5l-12 -8v121h100v-504h-100v123l12 -5q-17 -60 -64.5 -92.5t-114.5 -32.5zM292 73q68 0 105.5 47t37.5 134t-37.5 134t-105.5 47q-69 0 -107.5 -48.5t-38.5 -134.5
t38.5 -132.5t107.5 -46.5zM271 569l-142 205h110l99 -205h-67z" />
    <glyph glyph-name="uni1EA3" unicode="&#x1ea3;" horiz-adv-x="609" 
d="M268 -7q-67 0 -117.5 31.5t-78 90t-27.5 137.5t28 138.5t78.5 92.5t116.5 33q67 0 114.5 -32.5t64.5 -92.5l-12 -8v121h100v-504h-100v123l12 -5q-17 -60 -64.5 -92.5t-114.5 -32.5zM292 73q68 0 105.5 47t37.5 134t-37.5 134t-105.5 47q-69 0 -107.5 -48.5t-38.5 -134.5
t38.5 -132.5t107.5 -46.5zM336 587v-18h-59v27q0 20 9 34.5t22 25.5t22 21t9 20q0 12 -10 18.5t-29 6.5q-13 0 -26.5 -2.5t-29.5 -8.5l-17 48q21 10 42 14t41 4q51 0 77.5 -21t26.5 -50q0 -24 -11.5 -39t-27 -26.5t-27.5 -23t-12 -30.5z" />
    <glyph glyph-name="uni0203" unicode="&#x203;" horiz-adv-x="609" 
d="M268 -7q-67 0 -117.5 31.5t-78 90t-27.5 137.5t28 138.5t78.5 92.5t116.5 33q67 0 114.5 -32.5t64.5 -92.5l-12 -8v121h100v-504h-100v123l12 -5q-17 -60 -64.5 -92.5t-114.5 -32.5zM292 73q68 0 105.5 47t37.5 134t-37.5 134t-105.5 47q-69 0 -107.5 -48.5t-38.5 -134.5
t38.5 -132.5t107.5 -46.5zM305 752q36 0 70 -14t61 -43t41 -76l-56 -24q-24 48 -53 67.5t-63 19.5t-63.5 -19.5t-53.5 -67.5l-56 24q14 47 40.5 76t61 43t71.5 14z" />
    <glyph glyph-name="amacron" unicode="&#x101;" horiz-adv-x="609" 
d="M268 -7q-67 0 -117.5 31.5t-78 90t-27.5 137.5t28 138.5t78.5 92.5t116.5 33q67 0 114.5 -32.5t64.5 -92.5l-12 -8v121h100v-504h-100v123l12 -5q-17 -60 -64.5 -92.5t-114.5 -32.5zM292 73q68 0 105.5 47t37.5 134t-37.5 134t-105.5 47q-69 0 -107.5 -48.5t-38.5 -134.5
t38.5 -132.5t107.5 -46.5zM151 635v72h307v-72h-307z" />
    <glyph glyph-name="aogonek" unicode="&#x105;" horiz-adv-x="609" 
d="M535 0h-6q-41 0 -66.5 -21.5t-25.5 -55.5q0 -30 17.5 -46.5t49.5 -16.5q27 0 59 18l17 -56q-20 -10 -44 -16t-49 -6q-54 0 -88.5 31t-34.5 80q0 46 31.5 80t86.5 48l-18 -39h-29v109l12 9q-17 -60 -64.5 -92.5t-114.5 -32.5q-68 0 -118 32t-77.5 90t-27.5 137
q0 78 28 138t78 93t117 33t114.5 -32.5t64.5 -92.5l-12 -8v121h100v-504zM292 73q68 0 105.5 47t37.5 134t-37.5 134t-105.5 47q-69 0 -107.5 -48.5t-38.5 -134.5t38.5 -132.5t107.5 -46.5z" />
    <glyph glyph-name="aring" unicode="&#xe5;" horiz-adv-x="609" 
d="M268 -7q-67 0 -117.5 31.5t-78 90t-27.5 137.5t28 138.5t78.5 92.5t116.5 33q67 0 114.5 -32.5t64.5 -92.5l-12 -8v121h100v-504h-100v123l12 -5q-17 -60 -64.5 -92.5t-114.5 -32.5zM292 73q68 0 105.5 47t37.5 134t-37.5 134t-105.5 47q-69 0 -107.5 -48.5t-38.5 -134.5
t38.5 -132.5t107.5 -46.5zM305 569q-44 0 -74.5 29.5t-30.5 73.5q0 43 30.5 72.5t74.5 29.5q29 0 52.5 -14t37.5 -37t14 -51q0 -44 -30.5 -73.5t-73.5 -29.5zM305 622q20 0 33.5 14t13.5 36q0 20 -13.5 34t-33.5 14q-21 0 -34.5 -14t-13.5 -34q0 -22 13.5 -36t34.5 -14z" />
    <glyph glyph-name="aringacute" unicode="&#x1fb;" horiz-adv-x="609" 
d="M268 -7q-67 0 -117.5 31.5t-78 90t-27.5 137.5t28 138.5t78.5 92.5t116.5 33q67 0 114.5 -32.5t64.5 -92.5l-12 -8v121h100v-504h-100v123l12 -5q-17 -60 -64.5 -92.5t-114.5 -32.5zM292 73q68 0 105.5 47t37.5 134t-37.5 134t-105.5 47q-69 0 -107.5 -48.5t-38.5 -134.5
t38.5 -132.5t107.5 -46.5zM305 571q-44 0 -75 30t-31 75q0 43 31 73.5t75 30.5q43 0 75 -30.5t32 -73.5q0 -45 -32 -75t-75 -30zM305 625q21 0 35 15t14 36t-14 35.5t-35 14.5t-34.5 -14.5t-13.5 -35.5t13.5 -36t34.5 -15zM388 718l-49 24l95 138l101 -4z" />
    <glyph glyph-name="atilde" unicode="&#xe3;" horiz-adv-x="609" 
d="M268 -7q-67 0 -117.5 31.5t-78 90t-27.5 137.5t28 138.5t78.5 92.5t116.5 33q67 0 114.5 -32.5t64.5 -92.5l-12 -8v121h100v-504h-100v123l12 -5q-17 -60 -64.5 -92.5t-114.5 -32.5zM292 73q68 0 105.5 47t37.5 134t-37.5 134t-105.5 47q-69 0 -107.5 -48.5t-38.5 -134.5
t38.5 -132.5t107.5 -46.5zM138 612q0 61 27 92.5t69 31.5q27 0 52 -14t47 -28.5t41 -14.5q22 0 34 15.5t12 38.5h51q0 -61 -27 -92.5t-69 -31.5q-27 0 -52 14t-47 28t-41 14q-22 0 -34 -16t-12 -37h-51z" />
    <glyph glyph-name="ae" unicode="&#xe6;" horiz-adv-x="877" 
d="M637 -7q-112 0 -175 67.5t-65 191.5q-2 78 26.5 137.5t80.5 93t120 33.5q65 0 112 -30.5t73 -86.5t26 -133v-16h-369v60h309l-28 -36q1 81 -31 124t-94 43q-65 0 -102.5 -48t-37.5 -141q0 -84 39.5 -131.5t119.5 -47.5q39 0 78.5 14.5t76.5 42.5l30 -72
q-34 -29 -85.5 -47t-103.5 -18zM245 -7q-54 0 -97 20t-67.5 56t-25.5 83q0 56 28 90.5t92 51t170 16.5h48v-58h-43q-73 0 -115.5 -10.5t-60.5 -31t-18 -52.5q0 -41 28.5 -65.5t71.5 -24.5q39 0 68 18.5t44.5 51.5t15.5 74v110q0 60 -23.5 87t-78.5 27q-44 0 -88 -13.5
t-87 -39.5l-31 71q27 19 61.5 33t73 21.5t72.5 7.5q97 0 144.5 -49.5t47.5 -149.5v-127l-35 -3q-4 -92 -57 -143t-138 -51z" />
    <glyph glyph-name="aeacute" unicode="&#x1fd;" horiz-adv-x="877" 
d="M637 -7q-112 0 -175 67.5t-65 191.5q-2 78 26.5 137.5t80.5 93t120 33.5q65 0 112 -30.5t73 -86.5t26 -133v-16h-369v60h309l-28 -36q1 81 -31 124t-94 43q-65 0 -102.5 -48t-37.5 -141q0 -84 39.5 -131.5t119.5 -47.5q39 0 78.5 14.5t76.5 42.5l30 -72
q-34 -29 -85.5 -47t-103.5 -18zM245 -7q-54 0 -97 20t-67.5 56t-25.5 83q0 56 28 90.5t92 51t170 16.5h48v-58h-43q-73 0 -115.5 -10.5t-60.5 -31t-18 -52.5q0 -41 28.5 -65.5t71.5 -24.5q39 0 68 18.5t44.5 51.5t15.5 74v110q0 60 -23.5 87t-78.5 27q-44 0 -88 -13.5
t-87 -39.5l-31 71q27 19 61.5 33t73 21.5t72.5 7.5q97 0 144.5 -49.5t47.5 -149.5v-127l-35 -3q-4 -92 -57 -143t-138 -51zM467 569h-67l99 205h110z" />
    <glyph glyph-name="b" unicode="b" horiz-adv-x="609" 
d="M73 0v736h101v-357l-11 12q17 59 64.5 92t113.5 33q67 0 117 -32t78.5 -90t28.5 -137q0 -80 -28.5 -139.5t-79 -92t-116.5 -32.5t-113.5 32.5t-64.5 92.5l11 14v-132h-101zM318 73q68 0 106 48t38 136q0 85 -38 131.5t-106 46.5q-70 0 -107 -47.5t-37 -132.5
q0 -88 37 -135t107 -47z" />
    <glyph glyph-name="c" unicode="c" horiz-adv-x="499" 
d="M292 -7q-76 0 -131.5 32t-85.5 90t-30 137t31 138.5t87.5 92.5t133.5 33q52 0 101 -17t80 -48l-31 -73q-35 28 -70.5 42t-72.5 14q-72 0 -113.5 -47t-41.5 -134t41 -133t114 -46q36 0 72 14t71 42l31 -73q-32 -30 -82 -47t-104 -17z" />
    <glyph glyph-name="cacute" unicode="&#x107;" horiz-adv-x="499" 
d="M292 -7q-76 0 -131.5 32t-85.5 90t-30 137t31 138.5t87.5 92.5t133.5 33q52 0 101 -17t80 -48l-31 -73q-35 28 -70.5 42t-72.5 14q-72 0 -113.5 -47t-41.5 -134t41 -133t114 -46q36 0 72 14t71 42l31 -73q-32 -30 -82 -47t-104 -17zM326 569h-67l99 205h110z" />
    <glyph glyph-name="ccaron" unicode="&#x10d;" horiz-adv-x="499" 
d="M292 -7q-76 0 -131.5 32t-85.5 90t-30 137t31 138.5t87.5 92.5t133.5 33q52 0 101 -17t80 -48l-31 -73q-35 28 -70.5 42t-72.5 14q-72 0 -113.5 -47t-41.5 -134t41 -133t114 -46q36 0 72 14t71 42l31 -73q-32 -30 -82 -47t-104 -17zM361 774h87l-122 -205h-67l-122 205
h87l69 -138z" />
    <glyph glyph-name="ccedilla" unicode="&#xe7;" horiz-adv-x="499" 
d="M292 -7q-76 0 -131.5 32t-85.5 90t-30 137t31 138.5t87.5 92.5t133.5 33q52 0 101 -17t80 -48l-31 -73q-35 28 -70.5 42t-72.5 14q-72 0 -113.5 -47t-41.5 -134t41 -133t114 -46q36 0 72 14t71 42l31 -73q-32 -30 -82 -47t-104 -17zM282 -196q-21 0 -46 4.5t-45 14.5
l13 48q22 -8 40.5 -11t35.5 -3q26 0 40 8.5t14 23.5q0 25 -35 25q-12 0 -23 -2t-20 -6l-20 17l12 97h64l-9 -74l-29 4q13 4 26 6.5t25 2.5q32 0 55.5 -17.5t23.5 -52.5q0 -36 -31.5 -60.5t-90.5 -24.5z" />
    <glyph glyph-name="uni1E09" unicode="&#x1e09;" horiz-adv-x="499" 
d="M292 -7q-76 0 -131.5 32t-85.5 90t-30 137t31 138.5t87.5 92.5t133.5 33q52 0 101 -17t80 -48l-31 -73q-35 28 -70.5 42t-72.5 14q-72 0 -113.5 -47t-41.5 -134t41 -133t114 -46q36 0 72 14t71 42l31 -73q-32 -30 -82 -47t-104 -17zM282 -196q-21 0 -46 4.5t-45 14.5
l13 48q22 -8 40.5 -11t35.5 -3q26 0 40 8.5t14 23.5q0 25 -35 25q-12 0 -23 -2t-20 -6l-20 17l12 97h64l-9 -74l-29 4q13 4 26 6.5t25 2.5q32 0 55.5 -17.5t23.5 -52.5q0 -36 -31.5 -60.5t-90.5 -24.5zM326 569h-67l99 205h110z" />
    <glyph glyph-name="ccircumflex" unicode="&#x109;" horiz-adv-x="499" 
d="M292 -7q-76 0 -131.5 32t-85.5 90t-30 137t31 138.5t87.5 92.5t133.5 33q52 0 101 -17t80 -48l-31 -73q-35 28 -70.5 42t-72.5 14q-72 0 -113.5 -47t-41.5 -134t41 -133t114 -46q36 0 72 14t71 42l31 -73q-32 -30 -82 -47t-104 -17zM224 569h-87l122 205h67l122 -205h-87
l-68 136z" />
    <glyph glyph-name="cdotaccent" unicode="&#x10b;" horiz-adv-x="499" 
d="M292 -7q-76 0 -131.5 32t-85.5 90t-30 137t31 138.5t87.5 92.5t133.5 33q52 0 101 -17t80 -48l-31 -73q-35 28 -70.5 42t-72.5 14q-72 0 -113.5 -47t-41.5 -134t41 -133t114 -46q36 0 72 14t71 42l31 -73q-32 -30 -82 -47t-104 -17zM234 724h117v-106h-117v106z" />
    <glyph glyph-name="d" unicode="d" horiz-adv-x="609" 
d="M535 0h-100v132l12 -14q-17 -60 -64.5 -92.5t-114.5 -32.5q-66 0 -116.5 32.5t-78.5 92t-28 139.5q0 79 27.5 137t78 90t117.5 32t114.5 -33t64.5 -92l-13 -12v357h101v-736zM292 73q68 0 105.5 47t37.5 135q0 85 -37.5 132.5t-105.5 47.5q-69 0 -107.5 -46.5
t-38.5 -131.5q0 -88 38.5 -136t107.5 -48z" />
    <glyph glyph-name="eth" unicode="&#xf0;" horiz-adv-x="586" 
d="M288 -7q-73 0 -127.5 29.5t-85 83t-30.5 125.5t29.5 126t83 83.5t124.5 29.5q79 0 129 -39.5t68 -117.5l-33 3q1 95 -34.5 167.5t-100 120t-152.5 68.5l25 73q88 -20 155 -61t112 -99.5t68 -131t23 -153.5q0 -150 -65.5 -228.5t-188.5 -78.5zM291 73q67 0 105 42t38 116
q0 76 -37.5 117.5t-105.5 41.5q-69 0 -107 -41.5t-38 -117.5t37.5 -117t107.5 -41zM181 514l-18 58l358 120l17 -59z" />
    <glyph glyph-name="dcaron" unicode="&#x10f;" horiz-adv-x="609" 
d="M610 539h-42v197h69zM535 0h-100v132l12 -14q-17 -60 -64.5 -92.5t-114.5 -32.5q-66 0 -116.5 32.5t-78.5 92t-28 139.5q0 79 27.5 137t78 90t117.5 32t114.5 -33t64.5 -92l-13 -12v357h101v-736zM292 73q68 0 105.5 47t37.5 135q0 85 -37.5 132.5t-105.5 47.5
q-69 0 -107.5 -46.5t-38.5 -131.5q0 -88 38.5 -136t107.5 -48z" />
    <glyph glyph-name="dcroat" unicode="&#x111;" horiz-adv-x="609" 
d="M237 576v73h392v-73h-392zM535 0h-100v132l12 -14q-17 -60 -64.5 -92.5t-114.5 -32.5q-66 0 -116.5 32.5t-78.5 92t-28 139.5q0 79 27.5 137t78 90t117.5 32t114.5 -33t64.5 -92l-13 -12v357h101v-736zM292 73q68 0 105.5 47t37.5 135q0 85 -37.5 132.5t-105.5 47.5
q-69 0 -107.5 -46.5t-38.5 -131.5q0 -88 38.5 -136t107.5 -48z" />
    <glyph glyph-name="uni1E0D" unicode="&#x1e0d;" horiz-adv-x="609" 
d="M535 0h-100v132l12 -14q-17 -60 -64.5 -92.5t-114.5 -32.5q-66 0 -116.5 32.5t-78.5 92t-28 139.5q0 79 27.5 137t78 90t117.5 32t114.5 -33t64.5 -92l-13 -12v357h101v-736zM292 73q68 0 105.5 47t37.5 135q0 85 -37.5 132.5t-105.5 47.5q-69 0 -107.5 -46.5
t-38.5 -131.5q0 -88 38.5 -136t107.5 -48zM252 -87h107v-102h-107v102z" />
    <glyph glyph-name="uni1E0F" unicode="&#x1e0f;" horiz-adv-x="609" 
d="M535 0h-100v132l12 -14q-17 -60 -64.5 -92.5t-114.5 -32.5q-66 0 -116.5 32.5t-78.5 92t-28 139.5q0 79 27.5 137t78 90t117.5 32t114.5 -33t64.5 -92l-13 -12v357h101v-736zM292 73q68 0 105.5 47t37.5 135q0 85 -37.5 132.5t-105.5 47.5q-69 0 -107.5 -46.5
t-38.5 -131.5q0 -88 38.5 -136t107.5 -48zM152 -173v69h307v-69h-307z" />
    <glyph glyph-name="uni01C6" unicode="&#x1c6;" horiz-adv-x="1130" 
d="M535 0h-100v132l12 -14q-17 -60 -64.5 -92.5t-114.5 -32.5q-66 0 -116.5 32.5t-78.5 92t-28 139.5q0 79 27.5 137t78 90t117.5 32t114.5 -33t64.5 -92l-13 -12v357h101v-736zM292 73q68 0 105.5 47t37.5 135q0 85 -37.5 132.5t-105.5 47.5q-69 0 -107.5 -46.5
t-38.5 -131.5q0 -88 38.5 -136t107.5 -48zM658 0v70l328 389l11 -33h-330v78h412v-71l-327 -389l-9 34h347v-78h-432zM944 774h87l-122 -205h-67l-122 205h87l69 -138z" />
    <glyph glyph-name="e" unicode="e" horiz-adv-x="546" 
d="M495 58q-34 -30 -86 -47.5t-106 -17.5q-80 0 -138 31t-89 90t-31 140q0 78 30.5 137t84.5 92t125 33q68 0 117 -30t75.5 -85.5t26.5 -133.5v-17h-371l1 60h311l-29 -36q1 81 -32 124t-97 43q-67 0 -105 -47.5t-38 -132.5q0 -95 41 -141.5t120 -46.5q43 0 83 14t76 43z
" />
    <glyph glyph-name="eacute" unicode="&#xe9;" horiz-adv-x="546" 
d="M495 58q-34 -30 -86 -47.5t-106 -17.5q-80 0 -138 31t-89 90t-31 140q0 78 30.5 137t84.5 92t125 33q68 0 117 -30t75.5 -85.5t26.5 -133.5v-17h-371l1 60h311l-29 -36q1 81 -32 124t-97 43q-67 0 -105 -47.5t-38 -132.5q0 -95 41 -141.5t120 -46.5q43 0 83 14t76 43z
M318 569h-67l99 205h110z" />
    <glyph glyph-name="ebreve" unicode="&#x115;" horiz-adv-x="546" 
d="M495 58q-34 -30 -86 -47.5t-106 -17.5q-80 0 -138 31t-89 90t-31 140q0 78 30.5 137t84.5 92t125 33q68 0 117 -30t75.5 -85.5t26.5 -133.5v-17h-371l1 60h311l-29 -36q1 81 -32 124t-97 43q-67 0 -105 -47.5t-38 -132.5q0 -95 41 -141.5t120 -46.5q43 0 83 14t76 43z
M285 597q-37 0 -71 13.5t-61 43t-41 76.5l56 24q24 -48 53.5 -67.5t63.5 -19.5t63 19.5t53 67.5l56 -24q-14 -47 -40.5 -76.5t-61 -43t-70.5 -13.5z" />
    <glyph glyph-name="ecaron" unicode="&#x11b;" horiz-adv-x="546" 
d="M495 58q-34 -30 -86 -47.5t-106 -17.5q-80 0 -138 31t-89 90t-31 140q0 78 30.5 137t84.5 92t125 33q68 0 117 -30t75.5 -85.5t26.5 -133.5v-17h-371l1 60h311l-29 -36q1 81 -32 124t-97 43q-67 0 -105 -47.5t-38 -132.5q0 -95 41 -141.5t120 -46.5q43 0 83 14t76 43z
M353 774h87l-122 -205h-67l-122 205h87l69 -138z" />
    <glyph glyph-name="uni1E1D" unicode="&#x1e1d;" horiz-adv-x="546" 
d="M495 58q-34 -30 -86 -47.5t-106 -17.5q-80 0 -138 31t-89 90t-31 140q0 78 30.5 137t84.5 92t125 33q68 0 117 -30t75.5 -85.5t26.5 -133.5v-17h-371l1 60h311l-29 -36q1 81 -32 124t-97 43q-67 0 -105 -47.5t-38 -132.5q0 -95 41 -141.5t120 -46.5q43 0 83 14t76 43z
M296 -196q-21 0 -46 4.5t-45 14.5l13 48q22 -8 40.5 -11t35.5 -3q26 0 40 8.5t14 23.5q0 25 -35 25q-12 0 -23 -2t-20 -6l-20 17l12 97h64l-9 -74l-29 4q13 4 26 6.5t25 2.5q32 0 55.5 -17.5t23.5 -52.5q0 -36 -31.5 -60.5t-90.5 -24.5zM285 597q-37 0 -71 13.5t-61 43
t-41 76.5l56 24q24 -48 53.5 -67.5t63.5 -19.5t63 19.5t53 67.5l56 -24q-14 -47 -40.5 -76.5t-61 -43t-70.5 -13.5z" />
    <glyph glyph-name="ecircumflex" unicode="&#xea;" horiz-adv-x="546" 
d="M495 58q-34 -30 -86 -47.5t-106 -17.5q-80 0 -138 31t-89 90t-31 140q0 78 30.5 137t84.5 92t125 33q68 0 117 -30t75.5 -85.5t26.5 -133.5v-17h-371l1 60h311l-29 -36q1 81 -32 124t-97 43q-67 0 -105 -47.5t-38 -132.5q0 -95 41 -141.5t120 -46.5q43 0 83 14t76 43z
M216 569h-87l122 205h67l122 -205h-87l-68 136z" />
    <glyph glyph-name="uni1EBF" unicode="&#x1ebf;" horiz-adv-x="546" 
d="M495 58q-34 -30 -86 -47.5t-106 -17.5q-80 0 -138 31t-89 90t-31 140q0 78 30.5 137t84.5 92t125 33q68 0 117 -30t75.5 -85.5t26.5 -133.5v-17h-371l1 60h311l-29 -36q1 81 -32 124t-97 43q-67 0 -105 -47.5t-38 -132.5q0 -95 41 -141.5t120 -46.5q43 0 83 14t76 43z
M214 569h-85l124 146h63l124 -146h-85l-70 92zM429 674h-56l86 143h97z" />
    <glyph glyph-name="uni1EC7" unicode="&#x1ec7;" horiz-adv-x="546" 
d="M495 58q-34 -30 -86 -47.5t-106 -17.5q-80 0 -138 31t-89 90t-31 140q0 78 30.5 137t84.5 92t125 33q68 0 117 -30t75.5 -85.5t26.5 -133.5v-17h-371l1 60h311l-29 -36q1 81 -32 124t-97 43q-67 0 -105 -47.5t-38 -132.5q0 -95 41 -141.5t120 -46.5q43 0 83 14t76 43z
M247 -87h107v-102h-107v102zM216 569h-87l122 205h67l122 -205h-87l-68 136z" />
    <glyph glyph-name="uni1EC1" unicode="&#x1ec1;" horiz-adv-x="546" 
d="M495 58q-34 -30 -86 -47.5t-106 -17.5q-80 0 -138 31t-89 90t-31 140q0 78 30.5 137t84.5 92t125 33q68 0 117 -30t75.5 -85.5t26.5 -133.5v-17h-371l1 60h311l-29 -36q1 81 -32 124t-97 43q-67 0 -105 -47.5t-38 -132.5q0 -95 41 -141.5t120 -46.5q43 0 83 14t76 43z
M214 569h-85l124 146h63l124 -146h-85l-70 92zM416 674l-116 143h96l76 -143h-56z" />
    <glyph glyph-name="uni1EC3" unicode="&#x1ec3;" horiz-adv-x="546" 
d="M495 58q-34 -30 -86 -47.5t-106 -17.5q-80 0 -138 31t-89 90t-31 140q0 78 30.5 137t84.5 92t125 33q68 0 117 -30t75.5 -85.5t26.5 -133.5v-17h-371l1 60h311l-29 -36q1 81 -32 124t-97 43q-67 0 -105 -47.5t-38 -132.5q0 -95 41 -141.5t120 -46.5q43 0 83 14t76 43z
M214 569h-85l124 146h63l124 -146h-85l-70 92zM432 683v-9h-60v18q0 17 10 26.5t23 14.5t23.5 9.5t10.5 11.5t-9.5 12t-29.5 5q-13 0 -28 -2.5t-32 -9.5l-16 46q18 8 40 12.5t46 4.5q48 0 75 -17.5t27 -45.5q0 -18 -12 -28.5t-28 -16.5t-28 -12.5t-12 -18.5z" />
    <glyph glyph-name="uni1EC5" unicode="&#x1ec5;" horiz-adv-x="546" 
d="M495 58q-34 -30 -86 -47.5t-106 -17.5q-80 0 -138 31t-89 90t-31 140q0 78 30.5 137t84.5 92t125 33q68 0 117 -30t75.5 -85.5t26.5 -133.5v-17h-371l1 60h311l-29 -36q1 81 -32 124t-97 43q-67 0 -105 -47.5t-38 -132.5q0 -95 41 -141.5t120 -46.5q43 0 83 14t76 43z
M214 569h-85l124 146h63l124 -146h-85l-70 92zM118 730q0 30 12.5 53t34 36t49.5 13q27 0 52 -10t47 -20t41 -10q22 0 34 12t12 28h51q0 -29 -12.5 -51.5t-34 -36t-49.5 -13.5q-27 0 -52 10.5t-47 20t-41 9.5q-22 0 -34 -12t-12 -29h-51z" />
    <glyph glyph-name="uni0205" unicode="&#x205;" horiz-adv-x="546" 
d="M495 58q-34 -30 -86 -47.5t-106 -17.5q-80 0 -138 31t-89 90t-31 140q0 78 30.5 137t84.5 92t125 33q68 0 117 -30t75.5 -85.5t26.5 -133.5v-17h-371l1 60h311l-29 -36q1 81 -32 124t-97 43q-67 0 -105 -47.5t-38 -132.5q0 -95 41 -141.5t120 -46.5q43 0 83 14t76 43z
M324 569l-80 205h85l43 -205h-48zM197 569l-80 205h86l42 -205h-48z" />
    <glyph glyph-name="edieresis" unicode="&#xeb;" horiz-adv-x="546" 
d="M495 58q-34 -30 -86 -47.5t-106 -17.5q-80 0 -138 31t-89 90t-31 140q0 78 30.5 137t84.5 92t125 33q68 0 117 -30t75.5 -85.5t26.5 -133.5v-17h-371l1 60h311l-29 -36q1 81 -32 124t-97 43q-67 0 -105 -47.5t-38 -132.5q0 -95 41 -141.5t120 -46.5q43 0 83 14t76 43z
M322 721h104v-100h-104v100zM143 721h104v-100h-104v100z" />
    <glyph glyph-name="edotaccent" unicode="&#x117;" horiz-adv-x="546" 
d="M495 58q-34 -30 -86 -47.5t-106 -17.5q-80 0 -138 31t-89 90t-31 140q0 78 30.5 137t84.5 92t125 33q68 0 117 -30t75.5 -85.5t26.5 -133.5v-17h-371l1 60h311l-29 -36q1 81 -32 124t-97 43q-67 0 -105 -47.5t-38 -132.5q0 -95 41 -141.5t120 -46.5q43 0 83 14t76 43z
M226 724h117v-106h-117v106z" />
    <glyph glyph-name="uni1EB9" unicode="&#x1eb9;" horiz-adv-x="546" 
d="M495 58q-34 -30 -86 -47.5t-106 -17.5q-80 0 -138 31t-89 90t-31 140q0 78 30.5 137t84.5 92t125 33q68 0 117 -30t75.5 -85.5t26.5 -133.5v-17h-371l1 60h311l-29 -36q1 81 -32 124t-97 43q-67 0 -105 -47.5t-38 -132.5q0 -95 41 -141.5t120 -46.5q43 0 83 14t76 43z
M247 -87h107v-102h-107v102z" />
    <glyph glyph-name="egrave" unicode="&#xe8;" horiz-adv-x="546" 
d="M495 58q-34 -30 -86 -47.5t-106 -17.5q-80 0 -138 31t-89 90t-31 140q0 78 30.5 137t84.5 92t125 33q68 0 117 -30t75.5 -85.5t26.5 -133.5v-17h-371l1 60h311l-29 -36q1 81 -32 124t-97 43q-67 0 -105 -47.5t-38 -132.5q0 -95 41 -141.5t120 -46.5q43 0 83 14t76 43z
M251 569l-142 205h110l99 -205h-67z" />
    <glyph glyph-name="uni1EBB" unicode="&#x1ebb;" horiz-adv-x="546" 
d="M495 58q-34 -30 -86 -47.5t-106 -17.5q-80 0 -138 31t-89 90t-31 140q0 78 30.5 137t84.5 92t125 33q68 0 117 -30t75.5 -85.5t26.5 -133.5v-17h-371l1 60h311l-29 -36q1 81 -32 124t-97 43q-67 0 -105 -47.5t-38 -132.5q0 -95 41 -141.5t120 -46.5q43 0 83 14t76 43z
M316 587v-18h-59v27q0 20 9 34.5t22 25.5t22 21t9 20q0 12 -10 18.5t-29 6.5q-13 0 -26.5 -2.5t-29.5 -8.5l-17 48q21 10 42 14t41 4q51 0 77.5 -21t26.5 -50q0 -24 -11.5 -39t-27 -26.5t-27.5 -23t-12 -30.5z" />
    <glyph glyph-name="uni0207" unicode="&#x207;" horiz-adv-x="546" 
d="M495 58q-34 -30 -86 -47.5t-106 -17.5q-80 0 -138 31t-89 90t-31 140q0 78 30.5 137t84.5 92t125 33q68 0 117 -30t75.5 -85.5t26.5 -133.5v-17h-371l1 60h311l-29 -36q1 81 -32 124t-97 43q-67 0 -105 -47.5t-38 -132.5q0 -95 41 -141.5t120 -46.5q43 0 83 14t76 43z
M285 752q36 0 70 -14t61 -43t41 -76l-56 -24q-24 48 -53 67.5t-63 19.5t-63.5 -19.5t-53.5 -67.5l-56 24q14 47 40.5 76t61 43t71.5 14z" />
    <glyph glyph-name="emacron" unicode="&#x113;" horiz-adv-x="546" 
d="M495 58q-34 -30 -86 -47.5t-106 -17.5q-80 0 -138 31t-89 90t-31 140q0 78 30.5 137t84.5 92t125 33q68 0 117 -30t75.5 -85.5t26.5 -133.5v-17h-371l1 60h311l-29 -36q1 81 -32 124t-97 43q-67 0 -105 -47.5t-38 -132.5q0 -95 41 -141.5t120 -46.5q43 0 83 14t76 43z
M131 635v72h307v-72h-307z" />
    <glyph glyph-name="uni1E17" unicode="&#x1e17;" horiz-adv-x="546" 
d="M495 58q-34 -30 -86 -47.5t-106 -17.5q-80 0 -138 31t-89 90t-31 140q0 78 30.5 137t84.5 92t125 33q68 0 117 -30t75.5 -85.5t26.5 -133.5v-17h-371l1 60h311l-29 -36q1 81 -32 124t-97 43q-67 0 -105 -47.5t-38 -132.5q0 -95 41 -141.5t120 -46.5q43 0 83 14t76 43z
M131 635v72h307v-72h-307zM318 764h-67l99 205h110z" />
    <glyph glyph-name="uni1E15" unicode="&#x1e15;" horiz-adv-x="546" 
d="M495 58q-34 -30 -86 -47.5t-106 -17.5q-80 0 -138 31t-89 90t-31 140q0 78 30.5 137t84.5 92t125 33q68 0 117 -30t75.5 -85.5t26.5 -133.5v-17h-371l1 60h311l-29 -36q1 81 -32 124t-97 43q-67 0 -105 -47.5t-38 -132.5q0 -95 41 -141.5t120 -46.5q43 0 83 14t76 43z
M131 635v72h307v-72h-307zM251 764l-142 205h110l99 -205h-67z" />
    <glyph glyph-name="eogonek" unicode="&#x119;" horiz-adv-x="546" 
d="M403 -200q-55 0 -89.5 30.5t-34.5 78.5q0 32 16.5 59t46.5 45l21 -12q-18 -5 -31 -6.5t-29 -1.5q-80 0 -138 31t-89 90t-31 140q0 78 30.5 137t84.5 92t125 33q68 0 117 -30t75.5 -85.5t26.5 -133.5v-17h-371l1 60h311l-29 -36q1 81 -32 124t-97 43q-67 0 -105 -48
t-38 -132q0 -95 41 -141.5t120 -46.5q43 0 83 14t76 43l31 -71q-7 -8 -17.5 -14.5t-36.5 -19.5q-49 -26 -68.5 -49t-19.5 -53t17.5 -46.5t48.5 -16.5q27 0 59 18l16 -56q-19 -10 -42 -16t-49 -6z" />
    <glyph glyph-name="uni1EBD" unicode="&#x1ebd;" horiz-adv-x="546" 
d="M495 58q-34 -30 -86 -47.5t-106 -17.5q-80 0 -138 31t-89 90t-31 140q0 78 30.5 137t84.5 92t125 33q68 0 117 -30t75.5 -85.5t26.5 -133.5v-17h-371l1 60h311l-29 -36q1 81 -32 124t-97 43q-67 0 -105 -47.5t-38 -132.5q0 -95 41 -141.5t120 -46.5q43 0 83 14t76 43z
M118 612q0 61 27 92.5t69 31.5q27 0 52 -14t47 -28.5t41 -14.5q22 0 34 15.5t12 38.5h51q0 -61 -27 -92.5t-69 -31.5q-27 0 -52 14t-47 28t-41 14q-22 0 -34 -16t-12 -37h-51z" />
    <glyph glyph-name="uni0259" unicode="&#x259;" horiz-adv-x="546" 
d="M50 450q38 31 92 48.5t108 17.5q77 0 133.5 -31.5t87 -90.5t30.5 -139q0 -79 -29 -138.5t-81.5 -91.5t-123.5 -32q-105 0 -165 65.5t-60 183.5v17h369l1 -61h-311l32 37q-1 -81 32.5 -124.5t98.5 -43.5q68 0 104.5 47.5t34.5 136.5q0 92 -40 138.5t-118 46.5
q-40 0 -80 -14.5t-83 -42.5z" />
    <glyph glyph-name="f" unicode="f" horiz-adv-x="351" 
d="M6 426v78h316v-78h-316zM338 647q-28 8 -51 8t-42 -8.5t-30 -29.5t-11 -57v-560h-101v568q0 85 42.5 128.5t119.5 43.5q19 0 37 -2t36 -8v-83z" />
    <glyph glyph-name="g" unicode="g" horiz-adv-x="613" 
d="M299 -223q-115 0 -201 50l16 79q47 -25 90 -37t94 -12q70 0 106 36t36 108v131l11 7q-12 -36 -37.5 -64.5t-62 -44t-81.5 -15.5q-67 0 -117.5 31.5t-79 87.5t-28.5 132q0 75 28.5 131t79 87.5t117.5 31.5q68 0 116 -33t65 -92l-12 5v108h101v-494q0 -116 -61 -174.5
t-180 -58.5zM294 96q68 0 106.5 45t38.5 125q0 78 -38.5 123.5t-106.5 45.5q-69 0 -108.5 -45t-39.5 -124q0 -80 39.5 -125t108.5 -45z" />
    <glyph glyph-name="gbreve" unicode="&#x11f;" horiz-adv-x="613" 
d="M299 -223q-115 0 -201 50l16 79q47 -25 90 -37t94 -12q70 0 106 36t36 108v131l11 7q-12 -36 -37.5 -64.5t-62 -44t-81.5 -15.5q-67 0 -117.5 31.5t-79 87.5t-28.5 132q0 75 28.5 131t79 87.5t117.5 31.5q68 0 116 -33t65 -92l-12 5v108h101v-494q0 -116 -61 -174.5
t-180 -58.5zM294 96q68 0 106.5 45t38.5 125q0 78 -38.5 123.5t-106.5 45.5q-69 0 -108.5 -45t-39.5 -124q0 -80 39.5 -125t108.5 -45zM308 597q-37 0 -71 13.5t-61 43t-41 76.5l56 24q24 -48 53.5 -67.5t63.5 -19.5t63 19.5t53 67.5l56 -24q-14 -47 -40.5 -76.5t-61 -43
t-70.5 -13.5z" />
    <glyph glyph-name="gcaron" unicode="&#x1e7;" horiz-adv-x="613" 
d="M299 -223q-115 0 -201 50l16 79q47 -25 90 -37t94 -12q70 0 106 36t36 108v131l11 7q-12 -36 -37.5 -64.5t-62 -44t-81.5 -15.5q-67 0 -117.5 31.5t-79 87.5t-28.5 132q0 75 28.5 131t79 87.5t117.5 31.5q68 0 116 -33t65 -92l-12 5v108h101v-494q0 -116 -61 -174.5
t-180 -58.5zM294 96q68 0 106.5 45t38.5 125q0 78 -38.5 123.5t-106.5 45.5q-69 0 -108.5 -45t-39.5 -124q0 -80 39.5 -125t108.5 -45zM376 774h87l-122 -205h-67l-122 205h87l69 -138z" />
    <glyph glyph-name="gcircumflex" unicode="&#x11d;" horiz-adv-x="613" 
d="M299 -223q-115 0 -201 50l16 79q47 -25 90 -37t94 -12q70 0 106 36t36 108v131l11 7q-12 -36 -37.5 -64.5t-62 -44t-81.5 -15.5q-67 0 -117.5 31.5t-79 87.5t-28.5 132q0 75 28.5 131t79 87.5t117.5 31.5q68 0 116 -33t65 -92l-12 5v108h101v-494q0 -116 -61 -174.5
t-180 -58.5zM294 96q68 0 106.5 45t38.5 125q0 78 -38.5 123.5t-106.5 45.5q-69 0 -108.5 -45t-39.5 -124q0 -80 39.5 -125t108.5 -45zM239 569h-87l122 205h67l122 -205h-87l-68 136z" />
    <glyph glyph-name="uni0123" unicode="&#x123;" horiz-adv-x="613" 
d="M299 -223q-115 0 -201 50l16 79q47 -25 90 -37t94 -12q70 0 106 36t36 108v131l11 7q-12 -36 -37.5 -64.5t-62 -44t-81.5 -15.5q-67 0 -117.5 31.5t-79 87.5t-28.5 132q0 75 28.5 131t79 87.5t117.5 31.5q68 0 116 -33t65 -92l-12 5v108h101v-494q0 -116 -61 -174.5
t-180 -58.5zM294 96q68 0 106.5 45t38.5 125q0 78 -38.5 123.5t-106.5 45.5q-69 0 -108.5 -45t-39.5 -124q0 -80 39.5 -125t108.5 -45zM251 598v60q0 40 11 73t42 62l42 -30q-22 -23 -29 -44.5t-7 -45.5l-27 17h81v-92h-113z" />
    <glyph glyph-name="gdotaccent" unicode="&#x121;" horiz-adv-x="613" 
d="M299 -223q-115 0 -201 50l16 79q47 -25 90 -37t94 -12q70 0 106 36t36 108v131l11 7q-12 -36 -37.5 -64.5t-62 -44t-81.5 -15.5q-67 0 -117.5 31.5t-79 87.5t-28.5 132q0 75 28.5 131t79 87.5t117.5 31.5q68 0 116 -33t65 -92l-12 5v108h101v-494q0 -116 -61 -174.5
t-180 -58.5zM294 96q68 0 106.5 45t38.5 125q0 78 -38.5 123.5t-106.5 45.5q-69 0 -108.5 -45t-39.5 -124q0 -80 39.5 -125t108.5 -45zM249 724h117v-106h-117v106z" />
    <glyph glyph-name="uni1E21" unicode="&#x1e21;" horiz-adv-x="613" 
d="M299 -223q-115 0 -201 50l16 79q47 -25 90 -37t94 -12q70 0 106 36t36 108v131l11 7q-12 -36 -37.5 -64.5t-62 -44t-81.5 -15.5q-67 0 -117.5 31.5t-79 87.5t-28.5 132q0 75 28.5 131t79 87.5t117.5 31.5q68 0 116 -33t65 -92l-12 5v108h101v-494q0 -116 -61 -174.5
t-180 -58.5zM294 96q68 0 106.5 45t38.5 125q0 78 -38.5 123.5t-106.5 45.5q-69 0 -108.5 -45t-39.5 -124q0 -80 39.5 -125t108.5 -45zM154 635v72h307v-72h-307z" />
    <glyph glyph-name="h" unicode="h" horiz-adv-x="593" 
d="M73 0v736h101v-334l-14 -6q22 59 70.5 89.5t111.5 30.5q181 0 181 -203v-313h-101v309q0 65 -26 95t-80 30q-65 0 -103.5 -40t-38.5 -107v-287h-101z" />
    <glyph glyph-name="hbar" unicode="&#x127;" horiz-adv-x="593" 
d="M73 0v736h101v-334l-14 -6q22 59 70.5 89.5t111.5 30.5q181 0 181 -203v-313h-101v309q0 65 -26 95t-80 30q-65 0 -103.5 -40t-38.5 -107v-287h-101zM-20 576v73h392v-73h-392z" />
    <glyph glyph-name="uni1E2B" unicode="&#x1e2b;" horiz-adv-x="593" 
d="M73 0v736h101v-334l-14 -6q22 59 70.5 89.5t111.5 30.5q181 0 181 -203v-313h-101v309q0 65 -26 95t-80 30q-65 0 -103.5 -40t-38.5 -107v-287h-101zM298 -217q-37 0 -71 13.5t-61 42.5t-41 76l56 24q24 -47 53.5 -66.5t63.5 -19.5t63 19.5t53 66.5l56 -23
q-14 -48 -40.5 -77t-61 -42.5t-70.5 -13.5z" />
    <glyph glyph-name="hcircumflex" unicode="&#x125;" horiz-adv-x="593" 
d="M73 0v736h101v-334l-14 -6q22 59 70.5 89.5t111.5 30.5q181 0 181 -203v-313h-101v309q0 65 -26 95t-80 30q-65 0 -103.5 -40t-38.5 -107v-287h-101zM55 797h-85l124 154h63l124 -154h-85l-70 99z" />
    <glyph glyph-name="uni1E25" unicode="&#x1e25;" horiz-adv-x="593" 
d="M73 0v736h101v-334l-14 -6q22 59 70.5 89.5t111.5 30.5q181 0 181 -203v-313h-101v309q0 65 -26 95t-80 30q-65 0 -103.5 -40t-38.5 -107v-287h-101zM244 -87h107v-102h-107v102z" />
    <glyph glyph-name="i" unicode="i" horiz-adv-x="248" 
d="M73 0v504h101v-504h-101zM66 724h117v-106h-117v106z" />
    <glyph glyph-name="dotlessi" unicode="&#x131;" horiz-adv-x="248" 
d="M73 0v504h101v-504h-101z" />
    <glyph glyph-name="iacute" unicode="&#xed;" horiz-adv-x="248" 
d="M73 0v504h101v-504h-101zM158 569h-67l99 205h110z" />
    <glyph glyph-name="ibreve" unicode="&#x12d;" horiz-adv-x="248" 
d="M73 0v504h101v-504h-101zM125 597q-37 0 -71 13.5t-61 43t-41 76.5l56 24q24 -48 53.5 -67.5t63.5 -19.5t63 19.5t53 67.5l56 -24q-14 -47 -40.5 -76.5t-61 -43t-70.5 -13.5z" />
    <glyph glyph-name="icircumflex" unicode="&#xee;" horiz-adv-x="248" 
d="M73 0v504h101v-504h-101zM56 569h-87l122 205h67l122 -205h-87l-68 136z" />
    <glyph glyph-name="uni0209" unicode="&#x209;" horiz-adv-x="248" 
d="M73 0v504h101v-504h-101zM164 569l-80 205h85l43 -205h-48zM37 569l-80 205h86l42 -205h-48z" />
    <glyph glyph-name="idieresis" unicode="&#xef;" horiz-adv-x="248" 
d="M73 0v504h101v-504h-101zM162 721h104v-100h-104v100zM-17 721h104v-100h-104v100z" />
    <glyph glyph-name="uni1E2F" unicode="&#x1e2f;" horiz-adv-x="248" 
d="M73 0v504h101v-504h-101zM162 721h104v-100h-104v100zM-17 721h104v-100h-104v100zM158 764h-67l99 205h110z" />
    <glyph glyph-name="i.loclTRK" horiz-adv-x="248" 
d="M73 0v504h101v-504h-101zM66 724h117v-106h-117v106z" />
    <glyph glyph-name="uni1ECB" unicode="&#x1ecb;" horiz-adv-x="248" 
d="M73 0v504h101v-504h-101zM66 724h117v-106h-117v106zM69 -87h107v-102h-107v102z" />
    <glyph glyph-name="igrave" unicode="&#xec;" horiz-adv-x="248" 
d="M73 0v504h101v-504h-101zM91 569l-142 205h110l99 -205h-67z" />
    <glyph glyph-name="uni1EC9" unicode="&#x1ec9;" horiz-adv-x="248" 
d="M73 0v504h101v-504h-101zM156 587v-18h-59v27q0 20 9 34.5t22 25.5t22 21t9 20q0 12 -10 18.5t-29 6.5q-13 0 -26.5 -2.5t-29.5 -8.5l-17 48q21 10 42 14t41 4q51 0 77.5 -21t26.5 -50q0 -24 -11.5 -39t-27 -26.5t-27.5 -23t-12 -30.5z" />
    <glyph glyph-name="uni020B" unicode="&#x20b;" horiz-adv-x="248" 
d="M73 0v504h101v-504h-101zM125 752q36 0 70 -14t61 -43t41 -76l-56 -24q-24 48 -53 67.5t-63 19.5t-63.5 -19.5t-53.5 -67.5l-56 24q14 47 40.5 76t61 43t71.5 14z" />
    <glyph glyph-name="imacron" unicode="&#x12b;" horiz-adv-x="248" 
d="M73 0v504h101v-504h-101zM-29 635v72h307v-72h-307z" />
    <glyph glyph-name="iogonek" unicode="&#x12f;" horiz-adv-x="248" 
d="M126 -200q-53 0 -88 30.5t-35 80.5q0 43 30 78t88 50l-17 -39h-31v504h101v-504h-6q-44 0 -68 -22.5t-24 -54.5q0 -30 18.5 -46.5t49.5 -16.5q12 0 27 4.5t31 13.5l17 -56q-19 -10 -42.5 -16t-50.5 -6zM65 728h118v-106h-118v106z" />
    <glyph glyph-name="itilde" unicode="&#x129;" horiz-adv-x="248" 
d="M73 0v504h101v-504h-101zM-42 612q0 61 27 92.5t69 31.5q27 0 52 -14t47 -28.5t41 -14.5q22 0 34 15.5t12 38.5h51q0 -61 -27 -92.5t-69 -31.5q-27 0 -52 14t-47 28t-41 14q-22 0 -34 -16t-12 -37h-51z" />
    <glyph glyph-name="j" unicode="j" horiz-adv-x="248" 
d="M-58 -128q15 -4 26.5 -6t22.5 -2q23 0 42 8.5t29.5 29t10.5 57.5v545h101v-553q0 -85 -42.5 -128.5t-117.5 -43.5q-18 0 -36.5 2t-35.5 8v83zM65 724h117v-106h-117v106z" />
    <glyph glyph-name="uni0237" unicode="&#x237;" horiz-adv-x="248" 
d="M-58 -128q15 -4 26.5 -6t22.5 -2q23 0 42 8.5t29.5 29t10.5 57.5v545h101v-553q0 -85 -42.5 -128.5t-117.5 -43.5q-18 0 -36.5 2t-35.5 8v83z" />
    <glyph glyph-name="jcircumflex" unicode="&#x135;" horiz-adv-x="248" 
d="M-58 -128q15 -4 26.5 -6t22.5 -2q23 0 42 8.5t29.5 29t10.5 57.5v545h101v-553q0 -85 -42.5 -128.5t-117.5 -43.5q-18 0 -36.5 2t-35.5 8v83zM55 569h-87l122 205h67l122 -205h-87l-68 136z" />
    <glyph glyph-name="k" unicode="k" horiz-adv-x="532" 
d="M415 0l-260 257l243 246h125l-271 -272l4 57l288 -288h-129zM73 0v736h101v-736h-101z" />
    <glyph glyph-name="uni0137" unicode="&#x137;" horiz-adv-x="532" 
d="M415 0l-260 257l243 246h125l-271 -272l4 57l288 -288h-129zM73 0v736h101v-736h-101zM321 -71v-60q0 -40 -11 -73t-43 -62l-42 30q22 23 29.5 44t7.5 45l26 -16h-80v92h113z" />
    <glyph glyph-name="kgreenlandic" unicode="&#x138;" horiz-adv-x="532" 
d="M415 0l-260 257l243 246h125l-271 -272l4 57l288 -288h-129zM73 0v504h101v-504h-101z" />
    <glyph glyph-name="l" unicode="l" horiz-adv-x="248" 
d="M73 0v736h101v-736h-101z" />
    <glyph glyph-name="lacute" unicode="&#x13a;" horiz-adv-x="248" 
d="M73 0v736h101v-736h-101zM158 797h-67l102 154h104z" />
    <glyph glyph-name="lcaron" unicode="&#x13e;" horiz-adv-x="248" 
d="M252 539h-43v197h69zM73 0v736h101v-736h-101z" />
    <glyph glyph-name="uni013C" unicode="&#x13c;" horiz-adv-x="248" 
d="M73 0v736h101v-736h-101zM181 -71v-60q0 -40 -11 -73t-43 -62l-42 30q22 23 29.5 44t7.5 45l26 -16h-80v92h113z" />
    <glyph glyph-name="ldot" unicode="&#x140;" horiz-adv-x="299" 
d="M73 0v736h101v-736h-101zM209 413h119v-109h-119v109z" />
    <glyph glyph-name="uni1E37" unicode="&#x1e37;" horiz-adv-x="248" 
d="M73 0v736h101v-736h-101zM71 -87h107v-102h-107v102z" />
    <glyph glyph-name="uni01C9" unicode="&#x1c9;" horiz-adv-x="496" 
d="M73 0v736h101v-736h-101zM190 -128q15 -4 26.5 -6t22.5 -2q23 0 42 8.5t29.5 29t10.5 57.5v545h101v-553q0 -85 -42.5 -128.5t-117.5 -43.5q-18 0 -36.5 2t-35.5 8v83zM313 724h117v-106h-117v106z" />
    <glyph glyph-name="uni1E3B" unicode="&#x1e3b;" horiz-adv-x="248" 
d="M73 0v736h101v-736h-101zM-29 -173v69h307v-69h-307z" />
    <glyph glyph-name="lslash" unicode="&#x142;" horiz-adv-x="309" 
d="M30 249l-40 70l289 168l40 -72zM104 0v736h101v-736h-101z" />
    <glyph glyph-name="m" unicode="m" horiz-adv-x="888" 
d="M73 0v362q0 35 -1.5 71t-6.5 71h96l9 -102l-10 -4q19 56 63 87t105 31q72 0 112.5 -35.5t52.5 -109.5l-24 17q17 59 65.5 93.5t114.5 34.5q84 0 126 -50.5t42 -152.5v-313h-101v309q0 65 -22.5 95t-72.5 30q-58 0 -91.5 -40t-33.5 -109v-285h-101v309q0 65 -23 95t-72 30
q-59 0 -92.5 -40t-33.5 -109v-285h-101z" />
    <glyph glyph-name="uni1E43" unicode="&#x1e43;" horiz-adv-x="888" 
d="M73 0v362q0 35 -1.5 71t-6.5 71h96l9 -102l-10 -4q19 56 63 87t105 31q72 0 112.5 -35.5t52.5 -109.5l-24 17q17 59 65.5 93.5t114.5 34.5q84 0 126 -50.5t42 -152.5v-313h-101v309q0 65 -22.5 95t-72.5 30q-58 0 -91.5 -40t-33.5 -109v-285h-101v309q0 65 -23 95t-72 30
q-59 0 -92.5 -40t-33.5 -109v-285h-101zM392 -87h107v-102h-107v102z" />
    <glyph glyph-name="n" unicode="n" horiz-adv-x="593" 
d="M73 0v362q0 35 -1.5 71t-6.5 71h96l9 -102l-10 -6q22 59 70.5 89.5t111.5 30.5q181 0 181 -203v-313h-101v309q0 65 -26 95t-80 30q-65 0 -103.5 -40t-38.5 -107v-287h-101z" />
    <glyph glyph-name="nacute" unicode="&#x144;" horiz-adv-x="593" 
d="M73 0v362q0 35 -1.5 71t-6.5 71h96l9 -102l-10 -6q22 59 70.5 89.5t111.5 30.5q181 0 181 -203v-313h-101v309q0 65 -26 95t-80 30q-65 0 -103.5 -40t-38.5 -107v-287h-101zM331 569h-67l99 205h110z" />
    <glyph glyph-name="napostrophe" unicode="&#x149;" horiz-adv-x="593" 
d="M205 763v-60q0 -40 -11 -73t-42 -63l-42 31q22 23 29 44t7 45l27 -16h-81v92h113zM73 0v362q0 35 -1.5 71t-6.5 71h96l9 -102l-10 -6q22 59 70.5 89.5t111.5 30.5q181 0 181 -203v-313h-101v309q0 65 -26 95t-80 30q-65 0 -103.5 -40t-38.5 -107v-287h-101z" />
    <glyph glyph-name="ncaron" unicode="&#x148;" horiz-adv-x="593" 
d="M73 0v362q0 35 -1.5 71t-6.5 71h96l9 -102l-10 -6q22 59 70.5 89.5t111.5 30.5q181 0 181 -203v-313h-101v309q0 65 -26 95t-80 30q-65 0 -103.5 -40t-38.5 -107v-287h-101zM366 774h87l-122 -205h-67l-122 205h87l69 -138z" />
    <glyph glyph-name="uni0146" unicode="&#x146;" horiz-adv-x="593" 
d="M73 0v362q0 35 -1.5 71t-6.5 71h96l9 -102l-10 -6q22 59 70.5 89.5t111.5 30.5q181 0 181 -203v-313h-101v309q0 65 -26 95t-80 30q-65 0 -103.5 -40t-38.5 -107v-287h-101zM354 -71v-60q0 -40 -11 -73t-43 -62l-42 30q22 23 29.5 44t7.5 45l26 -16h-80v92h113z" />
    <glyph glyph-name="uni1E45" unicode="&#x1e45;" horiz-adv-x="593" 
d="M73 0v362q0 35 -1.5 71t-6.5 71h96l9 -102l-10 -6q22 59 70.5 89.5t111.5 30.5q181 0 181 -203v-313h-101v309q0 65 -26 95t-80 30q-65 0 -103.5 -40t-38.5 -107v-287h-101zM239 724h117v-106h-117v106z" />
    <glyph glyph-name="uni1E47" unicode="&#x1e47;" horiz-adv-x="593" 
d="M73 0v362q0 35 -1.5 71t-6.5 71h96l9 -102l-10 -6q22 59 70.5 89.5t111.5 30.5q181 0 181 -203v-313h-101v309q0 65 -26 95t-80 30q-65 0 -103.5 -40t-38.5 -107v-287h-101zM244 -87h107v-102h-107v102z" />
    <glyph glyph-name="eng" unicode="&#x14b;" horiz-adv-x="593" 
d="M342 516q181 0 181 -203v-341q0 -68 -19.5 -111t-55 -62.5t-85.5 -19.5q-19 0 -37 2t-36 6v85q15 -4 26.5 -6t22.5 -2q23 0 42 9.5t30 34.5t11 72v329q0 65 -26 95t-80 30q-65 0 -103.5 -40t-38.5 -107v-287h-101v362q0 35 -1.5 71t-6.5 71h96l9 -102l-10 -6
q22 59 70.5 89.5t111.5 30.5z" />
    <glyph glyph-name="uni01CC" unicode="&#x1cc;" horiz-adv-x="841" 
d="M73 0v362q0 35 -1.5 71t-6.5 71h96l9 -102l-10 -6q22 59 70.5 89.5t111.5 30.5q181 0 181 -203v-313h-101v309q0 65 -26 95t-80 30q-65 0 -103.5 -40t-38.5 -107v-287h-101zM535 -128q15 -4 26.5 -6t22.5 -2q23 0 42 8.5t29.5 29t10.5 57.5v545h101v-553
q0 -85 -42.5 -128.5t-117.5 -43.5q-18 0 -36.5 2t-35.5 8v83zM658 724h117v-106h-117v106z" />
    <glyph glyph-name="uni1E49" unicode="&#x1e49;" horiz-adv-x="593" 
d="M73 0v362q0 35 -1.5 71t-6.5 71h96l9 -102l-10 -6q22 59 70.5 89.5t111.5 30.5q181 0 181 -203v-313h-101v309q0 65 -26 95t-80 30q-65 0 -103.5 -40t-38.5 -107v-287h-101zM144 -173v69h307v-69h-307z" />
    <glyph glyph-name="ntilde" unicode="&#xf1;" horiz-adv-x="593" 
d="M73 0v362q0 35 -1.5 71t-6.5 71h96l9 -102l-10 -6q22 59 70.5 89.5t111.5 30.5q181 0 181 -203v-313h-101v309q0 65 -26 95t-80 30q-65 0 -103.5 -40t-38.5 -107v-287h-101zM131 612q0 61 27 92.5t69 31.5q27 0 52 -14t47 -28.5t41 -14.5q22 0 34 15.5t12 38.5h51
q0 -61 -27 -92.5t-69 -31.5q-27 0 -52 14t-47 28t-41 14q-22 0 -34 -16t-12 -37h-51z" />
    <glyph glyph-name="o" unicode="o" horiz-adv-x="581" 
d="M291 -7q-75 0 -130.5 32t-85.5 90.5t-30 139.5q0 79 30 138t85.5 91t130.5 32q74 0 129.5 -32t86 -91t30.5 -138q0 -81 -30.5 -139.5t-86 -90.5t-129.5 -32zM291 73q68 0 105.5 46t37.5 136q0 87 -37.5 133.5t-105.5 46.5t-106.5 -46.5t-38.5 -133.5q0 -90 37.5 -136
t107.5 -46z" />
    <glyph glyph-name="oacute" unicode="&#xf3;" horiz-adv-x="581" 
d="M291 -7q-75 0 -130.5 32t-85.5 90.5t-30 139.5q0 79 30 138t85.5 91t130.5 32q74 0 129.5 -32t86 -91t30.5 -138q0 -81 -30.5 -139.5t-86 -90.5t-129.5 -32zM291 73q68 0 105.5 46t37.5 136q0 87 -37.5 133.5t-105.5 46.5t-106.5 -46.5t-38.5 -133.5q0 -90 37.5 -136
t107.5 -46zM324 569h-67l99 205h110z" />
    <glyph glyph-name="obreve" unicode="&#x14f;" horiz-adv-x="581" 
d="M291 -7q-75 0 -130.5 32t-85.5 90.5t-30 139.5q0 79 30 138t85.5 91t130.5 32q74 0 129.5 -32t86 -91t30.5 -138q0 -81 -30.5 -139.5t-86 -90.5t-129.5 -32zM291 73q68 0 105.5 46t37.5 136q0 87 -37.5 133.5t-105.5 46.5t-106.5 -46.5t-38.5 -133.5q0 -90 37.5 -136
t107.5 -46zM291 597q-37 0 -71 13.5t-61 43t-41 76.5l56 24q24 -48 53.5 -67.5t63.5 -19.5t63 19.5t53 67.5l56 -24q-14 -47 -40.5 -76.5t-61 -43t-70.5 -13.5z" />
    <glyph glyph-name="ocircumflex" unicode="&#xf4;" horiz-adv-x="581" 
d="M291 -7q-75 0 -130.5 32t-85.5 90.5t-30 139.5q0 79 30 138t85.5 91t130.5 32q74 0 129.5 -32t86 -91t30.5 -138q0 -81 -30.5 -139.5t-86 -90.5t-129.5 -32zM291 73q68 0 105.5 46t37.5 136q0 87 -37.5 133.5t-105.5 46.5t-106.5 -46.5t-38.5 -133.5q0 -90 37.5 -136
t107.5 -46zM222 569h-87l122 205h67l122 -205h-87l-68 136z" />
    <glyph glyph-name="uni1ED1" unicode="&#x1ed1;" horiz-adv-x="581" 
d="M291 -7q-75 0 -130.5 32t-85.5 90.5t-30 139.5q0 79 30 138t85.5 91t130.5 32q74 0 129.5 -32t86 -91t30.5 -138q0 -81 -30.5 -139.5t-86 -90.5t-129.5 -32zM291 73q68 0 105.5 46t37.5 136q0 87 -37.5 133.5t-105.5 46.5t-106.5 -46.5t-38.5 -133.5q0 -90 37.5 -136
t107.5 -46zM220 569h-85l124 146h63l124 -146h-85l-70 92zM435 674h-56l86 143h97z" />
    <glyph glyph-name="uni1ED9" unicode="&#x1ed9;" horiz-adv-x="581" 
d="M291 -7q-75 0 -130.5 32t-85.5 90.5t-30 139.5q0 79 30 138t85.5 91t130.5 32q74 0 129.5 -32t86 -91t30.5 -138q0 -81 -30.5 -139.5t-86 -90.5t-129.5 -32zM291 73q68 0 105.5 46t37.5 136q0 87 -37.5 133.5t-105.5 46.5t-106.5 -46.5t-38.5 -133.5q0 -90 37.5 -136
t107.5 -46zM237 -87h107v-102h-107v102zM222 569h-87l122 205h67l122 -205h-87l-68 136z" />
    <glyph glyph-name="uni1ED3" unicode="&#x1ed3;" horiz-adv-x="581" 
d="M291 -7q-75 0 -130.5 32t-85.5 90.5t-30 139.5q0 79 30 138t85.5 91t130.5 32q74 0 129.5 -32t86 -91t30.5 -138q0 -81 -30.5 -139.5t-86 -90.5t-129.5 -32zM291 73q68 0 105.5 46t37.5 136q0 87 -37.5 133.5t-105.5 46.5t-106.5 -46.5t-38.5 -133.5q0 -90 37.5 -136
t107.5 -46zM220 569h-85l124 146h63l124 -146h-85l-70 92zM422 674l-116 143h96l76 -143h-56z" />
    <glyph glyph-name="uni1ED5" unicode="&#x1ed5;" horiz-adv-x="581" 
d="M291 -7q-75 0 -130.5 32t-85.5 90.5t-30 139.5q0 79 30 138t85.5 91t130.5 32q74 0 129.5 -32t86 -91t30.5 -138q0 -81 -30.5 -139.5t-86 -90.5t-129.5 -32zM291 73q68 0 105.5 46t37.5 136q0 87 -37.5 133.5t-105.5 46.5t-106.5 -46.5t-38.5 -133.5q0 -90 37.5 -136
t107.5 -46zM220 569h-85l124 146h63l124 -146h-85l-70 92zM438 683v-9h-60v18q0 17 10 26.5t23 14.5t23.5 9.5t10.5 11.5t-9.5 12t-29.5 5q-13 0 -28 -2.5t-32 -9.5l-16 46q18 8 40 12.5t46 4.5q48 0 75 -17.5t27 -45.5q0 -18 -12 -28.5t-28 -16.5t-28 -12.5t-12 -18.5z" />
    <glyph glyph-name="uni1ED7" unicode="&#x1ed7;" horiz-adv-x="581" 
d="M291 -7q-75 0 -130.5 32t-85.5 90.5t-30 139.5q0 79 30 138t85.5 91t130.5 32q74 0 129.5 -32t86 -91t30.5 -138q0 -81 -30.5 -139.5t-86 -90.5t-129.5 -32zM291 73q68 0 105.5 46t37.5 136q0 87 -37.5 133.5t-105.5 46.5t-106.5 -46.5t-38.5 -133.5q0 -90 37.5 -136
t107.5 -46zM220 569h-85l124 146h63l124 -146h-85l-70 92zM124 730q0 30 12.5 53t34 36t49.5 13q27 0 52 -10t47 -20t41 -10q22 0 34 12t12 28h51q0 -29 -12.5 -51.5t-34 -36t-49.5 -13.5q-27 0 -52 10.5t-47 20t-41 9.5q-22 0 -34 -12t-12 -29h-51z" />
    <glyph glyph-name="uni020D" unicode="&#x20d;" horiz-adv-x="581" 
d="M291 -7q-75 0 -130.5 32t-85.5 90.5t-30 139.5q0 79 30 138t85.5 91t130.5 32q74 0 129.5 -32t86 -91t30.5 -138q0 -81 -30.5 -139.5t-86 -90.5t-129.5 -32zM291 73q68 0 105.5 46t37.5 136q0 87 -37.5 133.5t-105.5 46.5t-106.5 -46.5t-38.5 -133.5q0 -90 37.5 -136
t107.5 -46zM330 569l-80 205h85l43 -205h-48zM203 569l-80 205h86l42 -205h-48z" />
    <glyph glyph-name="odieresis" unicode="&#xf6;" horiz-adv-x="581" 
d="M291 -7q-75 0 -130.5 32t-85.5 90.5t-30 139.5q0 79 30 138t85.5 91t130.5 32q74 0 129.5 -32t86 -91t30.5 -138q0 -81 -30.5 -139.5t-86 -90.5t-129.5 -32zM291 73q68 0 105.5 46t37.5 136q0 87 -37.5 133.5t-105.5 46.5t-106.5 -46.5t-38.5 -133.5q0 -90 37.5 -136
t107.5 -46zM328 721h104v-100h-104v100zM149 721h104v-100h-104v100z" />
    <glyph glyph-name="uni022B" unicode="&#x22b;" horiz-adv-x="581" 
d="M291 -7q-75 0 -130.5 32t-85.5 90.5t-30 139.5q0 79 30 138t85.5 91t130.5 32q74 0 129.5 -32t86 -91t30.5 -138q0 -81 -30.5 -139.5t-86 -90.5t-129.5 -32zM291 73q68 0 105.5 46t37.5 136q0 87 -37.5 133.5t-105.5 46.5t-106.5 -46.5t-38.5 -133.5q0 -90 37.5 -136
t107.5 -46zM328 721h104v-100h-104v100zM149 721h104v-100h-104v100zM137 830v72h307v-72h-307z" />
    <glyph glyph-name="uni0231" unicode="&#x231;" horiz-adv-x="581" 
d="M291 -7q-75 0 -130.5 32t-85.5 90.5t-30 139.5q0 79 30 138t85.5 91t130.5 32q74 0 129.5 -32t86 -91t30.5 -138q0 -81 -30.5 -139.5t-86 -90.5t-129.5 -32zM291 73q68 0 105.5 46t37.5 136q0 87 -37.5 133.5t-105.5 46.5t-106.5 -46.5t-38.5 -133.5q0 -90 37.5 -136
t107.5 -46zM232 724h117v-106h-117v106zM137 830v72h307v-72h-307z" />
    <glyph glyph-name="uni1ECD" unicode="&#x1ecd;" horiz-adv-x="581" 
d="M291 -7q-75 0 -130.5 32t-85.5 90.5t-30 139.5q0 79 30 138t85.5 91t130.5 32q74 0 129.5 -32t86 -91t30.5 -138q0 -81 -30.5 -139.5t-86 -90.5t-129.5 -32zM291 73q68 0 105.5 46t37.5 136q0 87 -37.5 133.5t-105.5 46.5t-106.5 -46.5t-38.5 -133.5q0 -90 37.5 -136
t107.5 -46zM237 -87h107v-102h-107v102z" />
    <glyph glyph-name="ograve" unicode="&#xf2;" horiz-adv-x="581" 
d="M291 -7q-75 0 -130.5 32t-85.5 90.5t-30 139.5q0 79 30 138t85.5 91t130.5 32q74 0 129.5 -32t86 -91t30.5 -138q0 -81 -30.5 -139.5t-86 -90.5t-129.5 -32zM291 73q68 0 105.5 46t37.5 136q0 87 -37.5 133.5t-105.5 46.5t-106.5 -46.5t-38.5 -133.5q0 -90 37.5 -136
t107.5 -46zM257 569l-142 205h110l99 -205h-67z" />
    <glyph glyph-name="uni1ECF" unicode="&#x1ecf;" horiz-adv-x="581" 
d="M291 -7q-75 0 -130.5 32t-85.5 90.5t-30 139.5q0 79 30 138t85.5 91t130.5 32q74 0 129.5 -32t86 -91t30.5 -138q0 -81 -30.5 -139.5t-86 -90.5t-129.5 -32zM291 73q68 0 105.5 46t37.5 136q0 87 -37.5 133.5t-105.5 46.5t-106.5 -46.5t-38.5 -133.5q0 -90 37.5 -136
t107.5 -46zM322 587v-18h-59v27q0 20 9 34.5t22 25.5t22 21t9 20q0 12 -10 18.5t-29 6.5q-13 0 -26.5 -2.5t-29.5 -8.5l-17 48q21 10 42 14t41 4q51 0 77.5 -21t26.5 -50q0 -24 -11.5 -39t-27 -26.5t-27.5 -23t-12 -30.5z" />
    <glyph glyph-name="ohorn" unicode="&#x1a1;" horiz-adv-x="581" 
d="M291 -7q-75 0 -130.5 32t-85.5 90.5t-30 138.5t30 139t85.5 91t129.5 32q13 0 28.5 -2t28.5 -3.5t19 -1.5q29 0 49 10t31 34t11 67v16h88v-29q0 -68 -37.5 -109.5t-105.5 -46.5l24 26q53 -31 82 -89t29 -134q0 -80 -30.5 -138.5t-86 -90.5t-129.5 -32zM291 73
q68 0 105.5 46t37.5 136q0 87 -37.5 133.5t-105.5 46.5t-106.5 -46.5t-38.5 -133.5q0 -90 37.5 -136t107.5 -46z" />
    <glyph glyph-name="uni1EDB" unicode="&#x1edb;" horiz-adv-x="581" 
d="M291 -7q-75 0 -130.5 32t-85.5 90.5t-30 138.5t30 139t85.5 91t129.5 32q13 0 28.5 -2t28.5 -3.5t19 -1.5q29 0 49 10t31 34t11 67v16h88v-29q0 -68 -37.5 -109.5t-105.5 -46.5l24 26q53 -31 82 -89t29 -134q0 -80 -30.5 -138.5t-86 -90.5t-129.5 -32zM291 73
q68 0 105.5 46t37.5 136q0 87 -37.5 133.5t-105.5 46.5t-106.5 -46.5t-38.5 -133.5q0 -90 37.5 -136t107.5 -46zM324 569h-67l99 205h110z" />
    <glyph glyph-name="uni1EE3" unicode="&#x1ee3;" horiz-adv-x="581" 
d="M291 -7q-75 0 -130.5 32t-85.5 90.5t-30 138.5t30 139t85.5 91t129.5 32q13 0 28.5 -2t28.5 -3.5t19 -1.5q29 0 49 10t31 34t11 67v16h88v-29q0 -68 -37.5 -109.5t-105.5 -46.5l24 26q53 -31 82 -89t29 -134q0 -80 -30.5 -138.5t-86 -90.5t-129.5 -32zM291 73
q68 0 105.5 46t37.5 136q0 87 -37.5 133.5t-105.5 46.5t-106.5 -46.5t-38.5 -133.5q0 -90 37.5 -136t107.5 -46zM237 -87h107v-102h-107v102z" />
    <glyph glyph-name="uni1EDD" unicode="&#x1edd;" horiz-adv-x="581" 
d="M291 -7q-75 0 -130.5 32t-85.5 90.5t-30 138.5t30 139t85.5 91t129.5 32q13 0 28.5 -2t28.5 -3.5t19 -1.5q29 0 49 10t31 34t11 67v16h88v-29q0 -68 -37.5 -109.5t-105.5 -46.5l24 26q53 -31 82 -89t29 -134q0 -80 -30.5 -138.5t-86 -90.5t-129.5 -32zM291 73
q68 0 105.5 46t37.5 136q0 87 -37.5 133.5t-105.5 46.5t-106.5 -46.5t-38.5 -133.5q0 -90 37.5 -136t107.5 -46zM257 569l-142 205h110l99 -205h-67z" />
    <glyph glyph-name="uni1EDF" unicode="&#x1edf;" horiz-adv-x="581" 
d="M291 -7q-75 0 -130.5 32t-85.5 90.5t-30 138.5t30 139t85.5 91t129.5 32q13 0 28.5 -2t28.5 -3.5t19 -1.5q29 0 49 10t31 34t11 67v16h88v-29q0 -68 -37.5 -109.5t-105.5 -46.5l24 26q53 -31 82 -89t29 -134q0 -80 -30.5 -138.5t-86 -90.5t-129.5 -32zM291 73
q68 0 105.5 46t37.5 136q0 87 -37.5 133.5t-105.5 46.5t-106.5 -46.5t-38.5 -133.5q0 -90 37.5 -136t107.5 -46zM322 587v-18h-59v27q0 20 9 34.5t22 25.5t22 21t9 20q0 12 -10 18.5t-29 6.5q-13 0 -26.5 -2.5t-29.5 -8.5l-17 48q21 10 42 14t41 4q51 0 77.5 -21t26.5 -50
q0 -24 -11.5 -39t-27 -26.5t-27.5 -23t-12 -30.5z" />
    <glyph glyph-name="uni1EE1" unicode="&#x1ee1;" horiz-adv-x="581" 
d="M291 -7q-75 0 -130.5 32t-85.5 90.5t-30 138.5t30 139t85.5 91t129.5 32q13 0 28.5 -2t28.5 -3.5t19 -1.5q29 0 49 10t31 34t11 67v16h88v-29q0 -68 -37.5 -109.5t-105.5 -46.5l24 26q53 -31 82 -89t29 -134q0 -80 -30.5 -138.5t-86 -90.5t-129.5 -32zM291 73
q68 0 105.5 46t37.5 136q0 87 -37.5 133.5t-105.5 46.5t-106.5 -46.5t-38.5 -133.5q0 -90 37.5 -136t107.5 -46zM124 612q0 61 27 92.5t69 31.5q27 0 52 -14t47 -28.5t41 -14.5q22 0 34 15.5t12 38.5h51q0 -61 -27 -92.5t-69 -31.5q-27 0 -52 14t-47 28t-41 14
q-22 0 -34 -16t-12 -37h-51z" />
    <glyph glyph-name="ohungarumlaut" unicode="&#x151;" horiz-adv-x="581" 
d="M291 -7q-75 0 -130.5 32t-85.5 90.5t-30 139.5q0 79 30 138t85.5 91t130.5 32q74 0 129.5 -32t86 -91t30.5 -138q0 -81 -30.5 -139.5t-86 -90.5t-129.5 -32zM291 73q68 0 105.5 46t37.5 136q0 87 -37.5 133.5t-105.5 46.5t-106.5 -46.5t-38.5 -133.5q0 -90 37.5 -136
t107.5 -46zM251 569h-48l43 205h85zM378 569h-48l42 205h86z" />
    <glyph glyph-name="uni020F" unicode="&#x20f;" horiz-adv-x="581" 
d="M291 -7q-75 0 -130.5 32t-85.5 90.5t-30 139.5q0 79 30 138t85.5 91t130.5 32q74 0 129.5 -32t86 -91t30.5 -138q0 -81 -30.5 -139.5t-86 -90.5t-129.5 -32zM291 73q68 0 105.5 46t37.5 136q0 87 -37.5 133.5t-105.5 46.5t-106.5 -46.5t-38.5 -133.5q0 -90 37.5 -136
t107.5 -46zM291 752q36 0 70 -14t61 -43t41 -76l-56 -24q-24 48 -53 67.5t-63 19.5t-63.5 -19.5t-53.5 -67.5l-56 24q14 47 40.5 76t61 43t71.5 14z" />
    <glyph glyph-name="omacron" unicode="&#x14d;" horiz-adv-x="581" 
d="M291 -7q-75 0 -130.5 32t-85.5 90.5t-30 139.5q0 79 30 138t85.5 91t130.5 32q74 0 129.5 -32t86 -91t30.5 -138q0 -81 -30.5 -139.5t-86 -90.5t-129.5 -32zM291 73q68 0 105.5 46t37.5 136q0 87 -37.5 133.5t-105.5 46.5t-106.5 -46.5t-38.5 -133.5q0 -90 37.5 -136
t107.5 -46zM137 635v72h307v-72h-307z" />
    <glyph glyph-name="uni1E53" unicode="&#x1e53;" horiz-adv-x="581" 
d="M291 -7q-75 0 -130.5 32t-85.5 90.5t-30 139.5q0 79 30 138t85.5 91t130.5 32q74 0 129.5 -32t86 -91t30.5 -138q0 -81 -30.5 -139.5t-86 -90.5t-129.5 -32zM291 73q68 0 105.5 46t37.5 136q0 87 -37.5 133.5t-105.5 46.5t-106.5 -46.5t-38.5 -133.5q0 -90 37.5 -136
t107.5 -46zM137 635v72h307v-72h-307zM324 764h-67l99 205h110z" />
    <glyph glyph-name="uni1E51" unicode="&#x1e51;" horiz-adv-x="581" 
d="M291 -7q-75 0 -130.5 32t-85.5 90.5t-30 139.5q0 79 30 138t85.5 91t130.5 32q74 0 129.5 -32t86 -91t30.5 -138q0 -81 -30.5 -139.5t-86 -90.5t-129.5 -32zM291 73q68 0 105.5 46t37.5 136q0 87 -37.5 133.5t-105.5 46.5t-106.5 -46.5t-38.5 -133.5q0 -90 37.5 -136
t107.5 -46zM137 635v72h307v-72h-307zM257 764l-142 205h110l99 -205h-67z" />
    <glyph glyph-name="uni01EB" unicode="&#x1eb;" horiz-adv-x="581" 
d="M350 -200q-54 0 -89 30.5t-35 78.5q0 34 16.5 61t47.5 43l6 -20q-77 -1 -133.5 30.5t-87 91t-30.5 140.5q0 79 30 138t85.5 91t130.5 32q74 0 129.5 -32t86 -91t30.5 -138q0 -94 -42 -160t-114 -88q-43 -13 -62 -33t-19 -51q0 -30 18 -46.5t48 -16.5q27 0 59 18l17 -56
q-20 -10 -43 -16t-49 -6zM291 73q68 0 105.5 46t37.5 136q0 87 -37.5 133.5t-105.5 46.5t-106.5 -46.5t-38.5 -133.5q0 -90 37.5 -136t107.5 -46z" />
    <glyph glyph-name="oslash" unicode="&#xf8;" horiz-adv-x="581" 
d="M291 -7q-75 0 -130.5 32t-85.5 90.5t-30 139.5q0 79 30 138t85.5 91t130.5 32q74 0 129.5 -32t86 -91t30.5 -138q0 -81 -30.5 -139.5t-86 -90.5t-129.5 -32zM150 -52l-56 33l337 578l56 -31zM291 73q70 0 107.5 46t37.5 136q0 88 -38 134.5t-107 46.5q-70 0 -108 -46.5
t-38 -134.5q0 -90 37.5 -136t108.5 -46z" />
    <glyph glyph-name="oslashacute" unicode="&#x1ff;" horiz-adv-x="581" 
d="M291 -7q-75 0 -130.5 32t-85.5 90.5t-30 139.5q0 79 30 138t85.5 91t130.5 32q74 0 129.5 -32t86 -91t30.5 -138q0 -81 -30.5 -139.5t-86 -90.5t-129.5 -32zM150 -52l-56 33l337 578l56 -31zM291 73q70 0 107.5 46t37.5 136q0 88 -38 134.5t-107 46.5q-70 0 -108 -46.5
t-38 -134.5q0 -90 37.5 -136t108.5 -46zM324 569h-67l99 205h110z" />
    <glyph glyph-name="otilde" unicode="&#xf5;" horiz-adv-x="581" 
d="M291 -7q-75 0 -130.5 32t-85.5 90.5t-30 139.5q0 79 30 138t85.5 91t130.5 32q74 0 129.5 -32t86 -91t30.5 -138q0 -81 -30.5 -139.5t-86 -90.5t-129.5 -32zM291 73q68 0 105.5 46t37.5 136q0 87 -37.5 133.5t-105.5 46.5t-106.5 -46.5t-38.5 -133.5q0 -90 37.5 -136
t107.5 -46zM124 612q0 61 27 92.5t69 31.5q27 0 52 -14t47 -28.5t41 -14.5q22 0 34 15.5t12 38.5h51q0 -61 -27 -92.5t-69 -31.5q-27 0 -52 14t-47 28t-41 14q-22 0 -34 -16t-12 -37h-51z" />
    <glyph glyph-name="uni1E4D" unicode="&#x1e4d;" horiz-adv-x="581" 
d="M291 -7q-75 0 -130.5 32t-85.5 90.5t-30 139.5q0 79 30 138t85.5 91t130.5 32q74 0 129.5 -32t86 -91t30.5 -138q0 -81 -30.5 -139.5t-86 -90.5t-129.5 -32zM291 73q68 0 105.5 46t37.5 136q0 87 -37.5 133.5t-105.5 46.5t-106.5 -46.5t-38.5 -133.5q0 -90 37.5 -136
t107.5 -46zM124 612q0 61 27 92.5t69 31.5q27 0 52 -14t47 -28.5t41 -14.5q22 0 34 15.5t12 38.5h51q0 -61 -27 -92.5t-69 -31.5q-27 0 -52 14t-47 28t-41 14q-22 0 -34 -16t-12 -37h-51zM324 764h-67l99 205h110z" />
    <glyph glyph-name="uni1E4F" unicode="&#x1e4f;" horiz-adv-x="581" 
d="M291 -7q-75 0 -130.5 32t-85.5 90.5t-30 139.5q0 79 30 138t85.5 91t130.5 32q74 0 129.5 -32t86 -91t30.5 -138q0 -81 -30.5 -139.5t-86 -90.5t-129.5 -32zM291 73q68 0 105.5 46t37.5 136q0 87 -37.5 133.5t-105.5 46.5t-106.5 -46.5t-38.5 -133.5q0 -90 37.5 -136
t107.5 -46zM124 612q0 61 27 92.5t69 31.5q27 0 52 -14t47 -28.5t41 -14.5q22 0 34 15.5t12 38.5h51q0 -61 -27 -92.5t-69 -31.5q-27 0 -52 14t-47 28t-41 14q-22 0 -34 -16t-12 -37h-51zM328 916h104v-100h-104v100zM149 916h104v-100h-104v100z" />
    <glyph glyph-name="uni022D" unicode="&#x22d;" horiz-adv-x="581" 
d="M291 -7q-75 0 -130.5 32t-85.5 90.5t-30 139.5q0 79 30 138t85.5 91t130.5 32q74 0 129.5 -32t86 -91t30.5 -138q0 -81 -30.5 -139.5t-86 -90.5t-129.5 -32zM291 73q68 0 105.5 46t37.5 136q0 87 -37.5 133.5t-105.5 46.5t-106.5 -46.5t-38.5 -133.5q0 -90 37.5 -136
t107.5 -46zM124 612q0 61 27 92.5t69 31.5q27 0 52 -14t47 -28.5t41 -14.5q22 0 34 15.5t12 38.5h51q0 -61 -27 -92.5t-69 -31.5q-27 0 -52 14t-47 28t-41 14q-22 0 -34 -16t-12 -37h-51zM137 830v72h307v-72h-307z" />
    <glyph glyph-name="oe" unicode="&#x153;" horiz-adv-x="932" 
d="M289 -7q-74 0 -129 32t-85 90.5t-30 139.5q0 79 30 137.5t85 91t129 32.5q71 0 123 -32t80.5 -90.5t28.5 -138.5q0 -81 -28.5 -140t-80.5 -90.5t-123 -31.5zM289 73q69 0 106.5 46t37.5 136q0 87 -38 133.5t-105 46.5q-68 0 -106 -46.5t-38 -133.5q0 -90 37.5 -136
t105.5 -46zM691 -7q-112 0 -175.5 67.5t-65.5 191.5q-2 79 26.5 138.5t80.5 92.5t122 33q64 0 111.5 -30t73.5 -86t26 -133v-32h-371l1 60h311l-28 -21q1 81 -31.5 124t-94.5 43q-67 0 -104.5 -47.5t-37.5 -132.5q0 -94 39 -141t117 -47q43 0 83 14.5t76 42.5l32 -72
q-34 -29 -86 -47t-105 -18z" />
    <glyph glyph-name="p" unicode="p" horiz-adv-x="609" 
d="M73 -216v578q0 35 -1.5 71t-6.5 71h96l9 -102l-7 -11q17 60 64.5 92.5t113.5 32.5t116.5 -33t79 -92.5t28.5 -138.5t-28.5 -137.5t-78.5 -90t-117 -31.5q-66 0 -113.5 32.5t-64.5 92.5l11 12v-346h-101zM318 73q68 0 106 46.5t38 132.5t-38 134.5t-106 48.5
q-70 0 -107 -47t-37 -134t37 -134t107 -47z" />
    <glyph glyph-name="thorn" unicode="&#xfe;" horiz-adv-x="609" 
d="M73 -216v952h101v-357l-11 12q17 60 64.5 92.5t113.5 32.5q65 0 115.5 -32.5t79.5 -91.5t29 -140t-29 -139t-79.5 -89t-115.5 -31q-66 0 -113.5 32.5t-64.5 92.5l11 12v-346h-101zM318 73q70 0 107 47t37 132t-37.5 134t-106.5 49q-70 0 -107 -47t-37 -134t37 -134
t107 -47z" />
    <glyph glyph-name="q" unicode="q" horiz-adv-x="609" 
d="M535 -216h-101v346l13 -12q-17 -60 -64.5 -92.5t-114.5 -32.5t-117.5 31.5t-78 90t-27.5 137.5t28 138.5t78.5 92.5t116.5 33q67 0 114.5 -32.5t64.5 -92.5l-10 11l12 102h94q-4 -35 -6 -71t-2 -71v-578zM292 73q68 0 105.5 47t37.5 134t-37.5 134t-105.5 47
q-69 0 -107.5 -48.5t-38.5 -134.5t38.5 -132.5t107.5 -46.5z" />
    <glyph glyph-name="r" unicode="r" horiz-adv-x="376" 
d="M73 0v362q0 35 -1.5 71t-6.5 71h96l12 -127l-12 5q13 66 59.5 100t104.5 34q14 0 26 -2t22 -5l-2 -92q-27 10 -59 10q-49 0 -79 -20.5t-44.5 -54t-14.5 -71.5v-281h-101z" />
    <glyph glyph-name="racute" unicode="&#x155;" horiz-adv-x="376" 
d="M73 0v362q0 35 -1.5 71t-6.5 71h96l12 -127l-12 5q13 66 59.5 100t104.5 34q14 0 26 -2t22 -5l-2 -92q-27 10 -59 10q-49 0 -79 -20.5t-44.5 -54t-14.5 -71.5v-281h-101zM260 569h-67l99 205h110z" />
    <glyph glyph-name="rcaron" unicode="&#x159;" horiz-adv-x="376" 
d="M73 0v362q0 35 -1.5 71t-6.5 71h96l12 -127l-12 5q13 66 59.5 100t104.5 34q14 0 26 -2t22 -5l-2 -92q-27 10 -59 10q-49 0 -79 -20.5t-44.5 -54t-14.5 -71.5v-281h-101zM295 774h87l-122 -205h-67l-122 205h87l69 -138z" />
    <glyph glyph-name="uni0157" unicode="&#x157;" horiz-adv-x="376" 
d="M73 0v362q0 35 -1.5 71t-6.5 71h96l12 -127l-12 5q13 66 59.5 100t104.5 34q14 0 26 -2t22 -5l-2 -92q-27 10 -59 10q-49 0 -79 -20.5t-44.5 -54t-14.5 -71.5v-281h-101zM181 -71v-60q0 -40 -11 -73t-43 -62l-42 30q22 23 29.5 44t7.5 45l26 -16h-80v92h113z" />
    <glyph glyph-name="uni0211" unicode="&#x211;" horiz-adv-x="376" 
d="M73 0v362q0 35 -1.5 71t-6.5 71h96l12 -127l-12 5q13 66 59.5 100t104.5 34q14 0 26 -2t22 -5l-2 -92q-27 10 -59 10q-49 0 -79 -20.5t-44.5 -54t-14.5 -71.5v-281h-101zM266 569l-80 205h85l43 -205h-48zM139 569l-80 205h86l42 -205h-48z" />
    <glyph glyph-name="uni1E5B" unicode="&#x1e5b;" horiz-adv-x="376" 
d="M73 0v362q0 35 -1.5 71t-6.5 71h96l12 -127l-12 5q13 66 59.5 100t104.5 34q14 0 26 -2t22 -5l-2 -92q-27 10 -59 10q-49 0 -79 -20.5t-44.5 -54t-14.5 -71.5v-281h-101zM71 -87h107v-102h-107v102z" />
    <glyph glyph-name="uni0213" unicode="&#x213;" horiz-adv-x="376" 
d="M73 0v362q0 35 -1.5 71t-6.5 71h96l12 -127l-12 5q13 66 59.5 100t104.5 34q14 0 26 -2t22 -5l-2 -92q-27 10 -59 10q-49 0 -79 -20.5t-44.5 -54t-14.5 -71.5v-281h-101zM227 752q36 0 70 -14t61 -43t41 -76l-56 -24q-24 48 -53 67.5t-63 19.5t-63.5 -19.5t-53.5 -67.5
l-56 24q14 47 40.5 76t61 43t71.5 14z" />
    <glyph glyph-name="uni1E5F" unicode="&#x1e5f;" horiz-adv-x="376" 
d="M73 0v362q0 35 -1.5 71t-6.5 71h96l12 -127l-12 5q13 66 59.5 100t104.5 34q14 0 26 -2t22 -5l-2 -92q-27 10 -59 10q-49 0 -79 -20.5t-44.5 -54t-14.5 -71.5v-281h-101zM-29 -173v69h307v-69h-307z" />
    <glyph glyph-name="s" unicode="s" horiz-adv-x="498" 
d="M250 -7q-132 0 -209 64l31 73q40 -31 84.5 -45.5t96.5 -14.5t79 17.5t27 49.5q0 27 -18.5 42.5t-62.5 26.5l-85 20q-66 14 -100.5 49.5t-34.5 88.5q0 45 25 79t70 53.5t105 19.5q54 0 102 -16.5t83 -48.5l-31 -71q-37 29 -75.5 43.5t-78.5 14.5q-49 0 -76 -18.5
t-27 -51.5q0 -27 16.5 -42.5t55.5 -24.5l85 -21q73 -16 107 -51t34 -90q0 -67 -54.5 -106.5t-148.5 -39.5z" />
    <glyph glyph-name="sacute" unicode="&#x15b;" horiz-adv-x="498" 
d="M250 -7q-132 0 -209 64l31 73q40 -31 84.5 -45.5t96.5 -14.5t79 17.5t27 49.5q0 27 -18.5 42.5t-62.5 26.5l-85 20q-66 14 -100.5 49.5t-34.5 88.5q0 45 25 79t70 53.5t105 19.5q54 0 102 -16.5t83 -48.5l-31 -71q-37 29 -75.5 43.5t-78.5 14.5q-49 0 -76 -18.5
t-27 -51.5q0 -27 16.5 -42.5t55.5 -24.5l85 -21q73 -16 107 -51t34 -90q0 -67 -54.5 -106.5t-148.5 -39.5zM291 569h-67l99 205h110z" />
    <glyph glyph-name="uni1E65" unicode="&#x1e65;" horiz-adv-x="498" 
d="M250 -7q-132 0 -209 64l31 73q40 -31 84.5 -45.5t96.5 -14.5t79 17.5t27 49.5q0 27 -18.5 42.5t-62.5 26.5l-85 20q-66 14 -100.5 49.5t-34.5 88.5q0 45 25 79t70 53.5t105 19.5q54 0 102 -16.5t83 -48.5l-31 -71q-37 29 -75.5 43.5t-78.5 14.5q-49 0 -76 -18.5
t-27 -51.5q0 -27 16.5 -42.5t55.5 -24.5l85 -21q73 -16 107 -51t34 -90q0 -67 -54.5 -106.5t-148.5 -39.5zM298 564h-67l99 205h110zM96 764h117v-106h-117v106z" />
    <glyph glyph-name="scaron" unicode="&#x161;" horiz-adv-x="498" 
d="M250 -7q-132 0 -209 64l31 73q40 -31 84.5 -45.5t96.5 -14.5t79 17.5t27 49.5q0 27 -18.5 42.5t-62.5 26.5l-85 20q-66 14 -100.5 49.5t-34.5 88.5q0 45 25 79t70 53.5t105 19.5q54 0 102 -16.5t83 -48.5l-31 -71q-37 29 -75.5 43.5t-78.5 14.5q-49 0 -76 -18.5
t-27 -51.5q0 -27 16.5 -42.5t55.5 -24.5l85 -21q73 -16 107 -51t34 -90q0 -67 -54.5 -106.5t-148.5 -39.5zM326 774h87l-122 -205h-67l-122 205h87l69 -138z" />
    <glyph glyph-name="uni1E67" unicode="&#x1e67;" horiz-adv-x="498" 
d="M250 -7q-132 0 -209 64l31 73q40 -31 84.5 -45.5t96.5 -14.5t79 17.5t27 49.5q0 27 -18.5 42.5t-62.5 26.5l-85 20q-66 14 -100.5 49.5t-34.5 88.5q0 45 25 79t70 53.5t105 19.5q54 0 102 -16.5t83 -48.5l-31 -71q-37 29 -75.5 43.5t-78.5 14.5q-49 0 -76 -18.5
t-27 -51.5q0 -27 16.5 -42.5t55.5 -24.5l85 -21q73 -16 107 -51t34 -90q0 -67 -54.5 -106.5t-148.5 -39.5zM326 774h87l-122 -205h-67l-122 205h87l69 -138zM199 919h117v-106h-117v106z" />
    <glyph glyph-name="scedilla" unicode="&#x15f;" horiz-adv-x="498" 
d="M250 -7q-132 0 -209 64l31 73q40 -31 84.5 -45.5t96.5 -14.5t79 17.5t27 49.5q0 27 -18.5 42.5t-62.5 26.5l-85 20q-66 14 -100.5 49.5t-34.5 88.5q0 45 25 79t70 53.5t105 19.5q54 0 102 -16.5t83 -48.5l-31 -71q-37 29 -75.5 43.5t-78.5 14.5q-49 0 -76 -18.5
t-27 -51.5q0 -27 16.5 -42.5t55.5 -24.5l85 -21q73 -16 107 -51t34 -90q0 -67 -54.5 -106.5t-148.5 -39.5zM243 -196q-21 0 -46 4.5t-45 14.5l13 48q22 -8 40.5 -11t35.5 -3q26 0 40 8.5t14 23.5q0 25 -35 25q-12 0 -23 -2t-20 -6l-20 17l12 97h64l-9 -74l-29 4q13 4 26 6.5
t25 2.5q32 0 55.5 -17.5t23.5 -52.5q0 -36 -31.5 -60.5t-90.5 -24.5z" />
    <glyph glyph-name="scircumflex" unicode="&#x15d;" horiz-adv-x="498" 
d="M250 -7q-132 0 -209 64l31 73q40 -31 84.5 -45.5t96.5 -14.5t79 17.5t27 49.5q0 27 -18.5 42.5t-62.5 26.5l-85 20q-66 14 -100.5 49.5t-34.5 88.5q0 45 25 79t70 53.5t105 19.5q54 0 102 -16.5t83 -48.5l-31 -71q-37 29 -75.5 43.5t-78.5 14.5q-49 0 -76 -18.5
t-27 -51.5q0 -27 16.5 -42.5t55.5 -24.5l85 -21q73 -16 107 -51t34 -90q0 -67 -54.5 -106.5t-148.5 -39.5zM189 569h-87l122 205h67l122 -205h-87l-68 136z" />
    <glyph glyph-name="uni0219" unicode="&#x219;" horiz-adv-x="498" 
d="M250 -7q-132 0 -209 64l31 73q40 -31 84.5 -45.5t96.5 -14.5t79 17.5t27 49.5q0 27 -18.5 42.5t-62.5 26.5l-85 20q-66 14 -100.5 49.5t-34.5 88.5q0 45 25 79t70 53.5t105 19.5q54 0 102 -16.5t83 -48.5l-31 -71q-37 29 -75.5 43.5t-78.5 14.5q-49 0 -76 -18.5
t-27 -51.5q0 -27 16.5 -42.5t55.5 -24.5l85 -21q73 -16 107 -51t34 -90q0 -67 -54.5 -106.5t-148.5 -39.5zM304 -71v-60q0 -40 -11 -73t-43 -62l-42 30q22 23 29.5 44t7.5 45l26 -16h-80v92h113z" />
    <glyph glyph-name="uni1E61" unicode="&#x1e61;" horiz-adv-x="498" 
d="M250 -7q-132 0 -209 64l31 73q40 -31 84.5 -45.5t96.5 -14.5t79 17.5t27 49.5q0 27 -18.5 42.5t-62.5 26.5l-85 20q-66 14 -100.5 49.5t-34.5 88.5q0 45 25 79t70 53.5t105 19.5q54 0 102 -16.5t83 -48.5l-31 -71q-37 29 -75.5 43.5t-78.5 14.5q-49 0 -76 -18.5
t-27 -51.5q0 -27 16.5 -42.5t55.5 -24.5l85 -21q73 -16 107 -51t34 -90q0 -67 -54.5 -106.5t-148.5 -39.5zM199 724h117v-106h-117v106z" />
    <glyph glyph-name="uni1E63" unicode="&#x1e63;" horiz-adv-x="498" 
d="M250 -7q-132 0 -209 64l31 73q40 -31 84.5 -45.5t96.5 -14.5t79 17.5t27 49.5q0 27 -18.5 42.5t-62.5 26.5l-85 20q-66 14 -100.5 49.5t-34.5 88.5q0 45 25 79t70 53.5t105 19.5q54 0 102 -16.5t83 -48.5l-31 -71q-37 29 -75.5 43.5t-78.5 14.5q-49 0 -76 -18.5
t-27 -51.5q0 -27 16.5 -42.5t55.5 -24.5l85 -21q73 -16 107 -51t34 -90q0 -67 -54.5 -106.5t-148.5 -39.5zM194 -87h107v-102h-107v102z" />
    <glyph glyph-name="uni1E69" unicode="&#x1e69;" horiz-adv-x="498" 
d="M250 -7q-132 0 -209 64l31 73q40 -31 84.5 -45.5t96.5 -14.5t79 17.5t27 49.5q0 27 -18.5 42.5t-62.5 26.5l-85 20q-66 14 -100.5 49.5t-34.5 88.5q0 45 25 79t70 53.5t105 19.5q54 0 102 -16.5t83 -48.5l-31 -71q-37 29 -75.5 43.5t-78.5 14.5q-49 0 -76 -18.5
t-27 -51.5q0 -27 16.5 -42.5t55.5 -24.5l85 -21q73 -16 107 -51t34 -90q0 -67 -54.5 -106.5t-148.5 -39.5zM194 -87h107v-102h-107v102zM199 724h117v-106h-117v106z" />
    <glyph glyph-name="germandbls" unicode="&#xdf;" horiz-adv-x="652" 
d="M73 0v485q0 126 66 191.5t188 65.5q97 0 152.5 -45t55.5 -127q0 -43 -15.5 -80.5t-55 -69.5t-109.5 -58v18q95 -19 154 -51t86.5 -74.5t27.5 -96.5q0 -50 -24 -87t-68 -57.5t-104 -20.5q-57 0 -107.5 16.5t-84.5 47.5l32 75q40 -32 80 -46.5t82 -13.5q50 0 74.5 24
t24.5 66q0 33 -23 62t-76 54t-146 49v76q61 23 95 47.5t48 54t14 63.5q0 47 -29 71.5t-84 24.5q-73 0 -113 -41t-40 -126v-497h-101z" />
    <glyph glyph-name="t" unicode="t" horiz-adv-x="363" 
d="M6 426v78h338v-78h-338zM343 86v-82q-18 -6 -36 -8.5t-39 -2.5q-77 0 -120.5 43.5t-43.5 128.5v465l101 35v-492q0 -37 11 -57.5t30.5 -29t43.5 -8.5q14 0 26 2t27 6z" />
    <glyph glyph-name="tbar" unicode="&#x167;" horiz-adv-x="373" 
d="M32 252v74h296v-74h-296zM11 426v78h338v-78h-338zM348 86v-82q-17 -6 -35.5 -8.5t-39.5 -2.5q-77 0 -120.5 43.5t-43.5 128.5v465l101 35v-492q0 -37 11.5 -57.5t30.5 -29t43 -8.5q14 0 26 2t27 6z" />
    <glyph glyph-name="tcaron" unicode="&#x165;" horiz-adv-x="363" 
d="M6 426v78h338v-78h-338zM343 86v-82q-18 -6 -36 -8.5t-39 -2.5q-77 0 -120.5 43.5t-43.5 128.5v465l101 35v-492q0 -37 11 -57.5t30.5 -29t43.5 -8.5q14 0 26 2t27 6zM304.871 532.814h-53.4307v173.705h80.6709z" />
    <glyph glyph-name="uni0163" unicode="&#x163;" horiz-adv-x="363" 
d="M6 426v78h338v-78h-338zM343 86v-82q-18 -6 -36 -8.5t-39 -2.5q-77 0 -120.5 43.5t-43.5 128.5v465l101 35v-492q0 -37 11 -57.5t30.5 -29t43.5 -8.5q14 0 26 2t27 6zM227 -196q-21 0 -46 4.5t-45 14.5l13 48q22 -8 40.5 -11t35.5 -3q26 0 40 8.5t14 23.5q0 25 -35 25
q-12 0 -23 -2t-20 -6l-20 17l12 97h64l-9 -74l-29 4q13 4 26 6.5t25 2.5q32 0 55.5 -17.5t23.5 -52.5q0 -36 -31.5 -60.5t-90.5 -24.5z" />
    <glyph glyph-name="uni021B" unicode="&#x21b;" horiz-adv-x="363" 
d="M6 426v78h338v-78h-338zM343 86v-82q-18 -6 -36 -8.5t-39 -2.5q-77 0 -120.5 43.5t-43.5 128.5v465l101 35v-492q0 -37 11 -57.5t30.5 -29t43.5 -8.5q14 0 26 2t27 6zM288 -71v-60q0 -40 -11 -73t-43 -62l-42 30q22 23 29.5 44t7.5 45l26 -16h-80v92h113z" />
    <glyph glyph-name="uni1E97" unicode="&#x1e97;" horiz-adv-x="363" 
d="M6 426v78h338v-78h-338zM343 86v-82q-18 -6 -36 -8.5t-39 -2.5q-77 0 -120.5 43.5t-43.5 128.5v465l101 35v-492q0 -37 11 -57.5t30.5 -29t43.5 -8.5q14 0 26 2t27 6zM192 844h104v-99h-104v99zM13 844h104v-99h-104v99z" />
    <glyph glyph-name="uni1E6D" unicode="&#x1e6d;" horiz-adv-x="363" 
d="M6 426v78h338v-78h-338zM343 86v-82q-18 -6 -36 -8.5t-39 -2.5q-77 0 -120.5 43.5t-43.5 128.5v465l101 35v-492q0 -37 11 -57.5t30.5 -29t43.5 -8.5q14 0 26 2t27 6zM178 -87h107v-102h-107v102z" />
    <glyph glyph-name="uni1E6F" unicode="&#x1e6f;" horiz-adv-x="363" 
d="M6 426v78h338v-78h-338zM343 86v-82q-18 -6 -36 -8.5t-39 -2.5q-77 0 -120.5 43.5t-43.5 128.5v465l101 35v-492q0 -37 11 -57.5t30.5 -29t43.5 -8.5q14 0 26 2t27 6zM78 -173v69h307v-69h-307z" />
    <glyph glyph-name="u" unicode="u" horiz-adv-x="585" 
d="M253 -7q-91 0 -137 50.5t-46 151.5v309h101v-308q0 -62 25.5 -91.5t78.5 -29.5q61 0 98.5 40t37.5 106v283h101v-504h-98v107l12 4q-21 -58 -67 -88t-106 -30z" />
    <glyph glyph-name="uacute" unicode="&#xfa;" horiz-adv-x="585" 
d="M253 -7q-91 0 -137 50.5t-46 151.5v309h101v-308q0 -62 25.5 -91.5t78.5 -29.5q61 0 98.5 40t37.5 106v283h101v-504h-98v107l12 4q-21 -58 -67 -88t-106 -30zM326 569h-67l99 205h110z" />
    <glyph glyph-name="ubreve" unicode="&#x16d;" horiz-adv-x="585" 
d="M253 -7q-91 0 -137 50.5t-46 151.5v309h101v-308q0 -62 25.5 -91.5t78.5 -29.5q61 0 98.5 40t37.5 106v283h101v-504h-98v107l12 4q-21 -58 -67 -88t-106 -30zM293 597q-37 0 -71 13.5t-61 43t-41 76.5l56 24q24 -48 53.5 -67.5t63.5 -19.5t63 19.5t53 67.5l56 -24
q-14 -47 -40.5 -76.5t-61 -43t-70.5 -13.5z" />
    <glyph glyph-name="ucircumflex" unicode="&#xfb;" horiz-adv-x="585" 
d="M253 -7q-91 0 -137 50.5t-46 151.5v309h101v-308q0 -62 25.5 -91.5t78.5 -29.5q61 0 98.5 40t37.5 106v283h101v-504h-98v107l12 4q-21 -58 -67 -88t-106 -30zM224 569h-87l122 205h67l122 -205h-87l-68 136z" />
    <glyph glyph-name="uni0215" unicode="&#x215;" horiz-adv-x="585" 
d="M253 -7q-91 0 -137 50.5t-46 151.5v309h101v-308q0 -62 25.5 -91.5t78.5 -29.5q61 0 98.5 40t37.5 106v283h101v-504h-98v107l12 4q-21 -58 -67 -88t-106 -30zM332 569l-80 205h85l43 -205h-48zM205 569l-80 205h86l42 -205h-48z" />
    <glyph glyph-name="udieresis" unicode="&#xfc;" horiz-adv-x="585" 
d="M253 -7q-91 0 -137 50.5t-46 151.5v309h101v-308q0 -62 25.5 -91.5t78.5 -29.5q61 0 98.5 40t37.5 106v283h101v-504h-98v107l12 4q-21 -58 -67 -88t-106 -30zM330 721h104v-100h-104v100zM151 721h104v-100h-104v100z" />
    <glyph glyph-name="uni1EE5" unicode="&#x1ee5;" horiz-adv-x="585" 
d="M253 -7q-91 0 -137 50.5t-46 151.5v309h101v-308q0 -62 25.5 -91.5t78.5 -29.5q61 0 98.5 40t37.5 106v283h101v-504h-98v107l12 4q-21 -58 -67 -88t-106 -30zM239 -87h107v-102h-107v102z" />
    <glyph glyph-name="ugrave" unicode="&#xf9;" horiz-adv-x="585" 
d="M253 -7q-91 0 -137 50.5t-46 151.5v309h101v-308q0 -62 25.5 -91.5t78.5 -29.5q61 0 98.5 40t37.5 106v283h101v-504h-98v107l12 4q-21 -58 -67 -88t-106 -30zM259 569l-142 205h110l99 -205h-67z" />
    <glyph glyph-name="uni1EE7" unicode="&#x1ee7;" horiz-adv-x="585" 
d="M253 -7q-91 0 -137 50.5t-46 151.5v309h101v-308q0 -62 25.5 -91.5t78.5 -29.5q61 0 98.5 40t37.5 106v283h101v-504h-98v107l12 4q-21 -58 -67 -88t-106 -30zM324 587v-18h-59v27q0 20 9 34.5t22 25.5t22 21t9 20q0 12 -10 18.5t-29 6.5q-13 0 -26.5 -2.5t-29.5 -8.5
l-17 48q21 10 42 14t41 4q51 0 77.5 -21t26.5 -50q0 -24 -11.5 -39t-27 -26.5t-27.5 -23t-12 -30.5z" />
    <glyph glyph-name="uhorn" unicode="&#x1b0;" horiz-adv-x="602" 
d="M543 636h89v-29q0 -47 -18 -82t-51.5 -54t-79.5 -21l29 33v-483h-98v107l12 4q-21 -58 -67 -88t-106 -30q-91 0 -137 50.5t-46 151.5v309h101v-308q0 -62 25.5 -91.5t78.5 -29.5q61 0 98.5 40t37.5 106v283h29q55 0 79 26.5t24 89.5v16z" />
    <glyph glyph-name="uni1EE9" unicode="&#x1ee9;" horiz-adv-x="602" 
d="M543 636h89v-29q0 -47 -18 -82t-51.5 -54t-79.5 -21l29 33v-483h-98v107l12 4q-21 -58 -67 -88t-106 -30q-91 0 -137 50.5t-46 151.5v309h101v-308q0 -62 25.5 -91.5t78.5 -29.5q61 0 98.5 40t37.5 106v283h29q55 0 79 26.5t24 89.5v16zM326 569h-67l99 205h110z" />
    <glyph glyph-name="uni1EF1" unicode="&#x1ef1;" horiz-adv-x="602" 
d="M543 636h89v-29q0 -47 -18 -82t-51.5 -54t-79.5 -21l29 33v-483h-98v107l12 4q-21 -58 -67 -88t-106 -30q-91 0 -137 50.5t-46 151.5v309h101v-308q0 -62 25.5 -91.5t78.5 -29.5q61 0 98.5 40t37.5 106v283h29q55 0 79 26.5t24 89.5v16zM239 -87h107v-102h-107v102z" />
    <glyph glyph-name="uni1EEB" unicode="&#x1eeb;" horiz-adv-x="602" 
d="M543 636h89v-29q0 -47 -18 -82t-51.5 -54t-79.5 -21l29 33v-483h-98v107l12 4q-21 -58 -67 -88t-106 -30q-91 0 -137 50.5t-46 151.5v309h101v-308q0 -62 25.5 -91.5t78.5 -29.5q61 0 98.5 40t37.5 106v283h29q55 0 79 26.5t24 89.5v16zM259 569l-142 205h110l99 -205
h-67z" />
    <glyph glyph-name="uni1EED" unicode="&#x1eed;" horiz-adv-x="602" 
d="M543 636h89v-29q0 -47 -18 -82t-51.5 -54t-79.5 -21l29 33v-483h-98v107l12 4q-21 -58 -67 -88t-106 -30q-91 0 -137 50.5t-46 151.5v309h101v-308q0 -62 25.5 -91.5t78.5 -29.5q61 0 98.5 40t37.5 106v283h29q55 0 79 26.5t24 89.5v16zM324 587v-18h-59v27q0 20 9 34.5
t22 25.5t22 21t9 20q0 12 -10 18.5t-29 6.5q-13 0 -26.5 -2.5t-29.5 -8.5l-17 48q21 10 42 14t41 4q51 0 77.5 -21t26.5 -50q0 -24 -11.5 -39t-27 -26.5t-27.5 -23t-12 -30.5z" />
    <glyph glyph-name="uni1EEF" unicode="&#x1eef;" horiz-adv-x="602" 
d="M543 636h89v-29q0 -47 -18 -82t-51.5 -54t-79.5 -21l29 33v-483h-98v107l12 4q-21 -58 -67 -88t-106 -30q-91 0 -137 50.5t-46 151.5v309h101v-308q0 -62 25.5 -91.5t78.5 -29.5q61 0 98.5 40t37.5 106v283h29q55 0 79 26.5t24 89.5v16zM126 612q0 61 27 92.5t69 31.5
q27 0 52 -14t47 -28.5t41 -14.5q22 0 34 15.5t12 38.5h51q0 -61 -27 -92.5t-69 -31.5q-27 0 -52 14t-47 28t-41 14q-22 0 -34 -16t-12 -37h-51z" />
    <glyph glyph-name="uhungarumlaut" unicode="&#x171;" horiz-adv-x="585" 
d="M253 -7q-91 0 -137 50.5t-46 151.5v309h101v-308q0 -62 25.5 -91.5t78.5 -29.5q61 0 98.5 40t37.5 106v283h101v-504h-98v107l12 4q-21 -58 -67 -88t-106 -30zM253 569h-48l43 205h85zM380 569h-48l42 205h86z" />
    <glyph glyph-name="uni0217" unicode="&#x217;" horiz-adv-x="585" 
d="M253 -7q-91 0 -137 50.5t-46 151.5v309h101v-308q0 -62 25.5 -91.5t78.5 -29.5q61 0 98.5 40t37.5 106v283h101v-504h-98v107l12 4q-21 -58 -67 -88t-106 -30zM293 752q36 0 70 -14t61 -43t41 -76l-56 -24q-24 48 -53 67.5t-63 19.5t-63.5 -19.5t-53.5 -67.5l-56 24
q14 47 40.5 76t61 43t71.5 14z" />
    <glyph glyph-name="umacron" unicode="&#x16b;" horiz-adv-x="585" 
d="M253 -7q-91 0 -137 50.5t-46 151.5v309h101v-308q0 -62 25.5 -91.5t78.5 -29.5q61 0 98.5 40t37.5 106v283h101v-504h-98v107l12 4q-21 -58 -67 -88t-106 -30zM139 635v72h307v-72h-307z" />
    <glyph glyph-name="uni1E7B" unicode="&#x1e7b;" horiz-adv-x="585" 
d="M253 -7q-91 0 -137 50.5t-46 151.5v309h101v-308q0 -62 25.5 -91.5t78.5 -29.5q61 0 98.5 40t37.5 106v283h101v-504h-98v107l12 4q-21 -58 -67 -88t-106 -30zM139 635v72h307v-72h-307zM330 916h104v-100h-104v100zM151 916h104v-100h-104v100z" />
    <glyph glyph-name="uogonek" unicode="&#x173;" horiz-adv-x="585" 
d="M512 0h-7q-39 0 -64.5 -21.5t-25.5 -55.5q0 -30 17 -46.5t49 -16.5q28 0 58 18l17 -56q-19 -10 -42.5 -16t-49.5 -6q-55 0 -89 31t-34 80q0 46 31 80t86 48l-17 -39h-27v107l12 4q-21 -58 -67 -88t-106 -30q-91 0 -137 50.5t-46 151.5v309h101v-308q0 -62 25.5 -91.5
t78.5 -29.5q61 0 98.5 40t37.5 106v283h101v-504z" />
    <glyph glyph-name="uring" unicode="&#x16f;" horiz-adv-x="585" 
d="M253 -7q-91 0 -137 50.5t-46 151.5v309h101v-308q0 -62 25.5 -91.5t78.5 -29.5q61 0 98.5 40t37.5 106v283h101v-504h-98v107l12 4q-21 -58 -67 -88t-106 -30zM293 569q-44 0 -74.5 29.5t-30.5 73.5q0 43 30.5 72.5t74.5 29.5q29 0 52.5 -14t37.5 -37t14 -51
q0 -44 -30.5 -73.5t-73.5 -29.5zM293 622q20 0 33.5 14t13.5 36q0 20 -13.5 34t-33.5 14q-21 0 -34.5 -14t-13.5 -34q0 -22 13.5 -36t34.5 -14z" />
    <glyph glyph-name="utilde" unicode="&#x169;" horiz-adv-x="585" 
d="M253 -7q-91 0 -137 50.5t-46 151.5v309h101v-308q0 -62 25.5 -91.5t78.5 -29.5q61 0 98.5 40t37.5 106v283h101v-504h-98v107l12 4q-21 -58 -67 -88t-106 -30zM126 612q0 61 27 92.5t69 31.5q27 0 52 -14t47 -28.5t41 -14.5q22 0 34 15.5t12 38.5h51q0 -61 -27 -92.5
t-69 -31.5q-27 0 -52 14t-47 28t-41 14q-22 0 -34 -16t-12 -37h-51z" />
    <glyph glyph-name="uni1E79" unicode="&#x1e79;" horiz-adv-x="585" 
d="M253 -7q-91 0 -137 50.5t-46 151.5v309h101v-308q0 -62 25.5 -91.5t78.5 -29.5q61 0 98.5 40t37.5 106v283h101v-504h-98v107l12 4q-21 -58 -67 -88t-106 -30zM126 612q0 61 27 92.5t69 31.5q27 0 52 -14t47 -28.5t41 -14.5q22 0 34 15.5t12 38.5h51q0 -61 -27 -92.5
t-69 -31.5q-27 0 -52 14t-47 28t-41 14q-22 0 -34 -16t-12 -37h-51zM326 764h-67l99 205h110z" />
    <glyph glyph-name="v" unicode="v" horiz-adv-x="537" 
d="M222 0l-216 503h105l172 -421h-26l174 421h101l-219 -503h-91z" />
    <glyph glyph-name="w" unicode="w" horiz-adv-x="875" 
d="M211 0l-192 504h105l149 -420h-25l152 420h80l151 -420h-25l151 420h99l-192 -504h-92l-161 432h51l-159 -432h-92z" />
    <glyph glyph-name="wacute" unicode="&#x1e83;" horiz-adv-x="875" 
d="M211 0l-192 504h105l149 -420h-25l152 420h80l151 -420h-25l151 420h99l-192 -504h-92l-161 432h51l-159 -432h-92zM471 569h-67l99 205h110z" />
    <glyph glyph-name="wcircumflex" unicode="&#x175;" horiz-adv-x="875" 
d="M211 0l-192 504h105l149 -420h-25l152 420h80l151 -420h-25l151 420h99l-192 -504h-92l-161 432h51l-159 -432h-92zM369 569h-87l122 205h67l122 -205h-87l-68 136z" />
    <glyph glyph-name="wdieresis" unicode="&#x1e85;" horiz-adv-x="875" 
d="M211 0l-192 504h105l149 -420h-25l152 420h80l151 -420h-25l151 420h99l-192 -504h-92l-161 432h51l-159 -432h-92zM475 721h104v-100h-104v100zM296 721h104v-100h-104v100z" />
    <glyph glyph-name="wgrave" unicode="&#x1e81;" horiz-adv-x="875" 
d="M211 0l-192 504h105l149 -420h-25l152 420h80l151 -420h-25l151 420h99l-192 -504h-92l-161 432h51l-159 -432h-92zM404 569l-142 205h110l99 -205h-67z" />
    <glyph glyph-name="x" unicode="x" horiz-adv-x="541" 
d="M419 0l-149 186l-58 74l-198 244h121l135 -172l60 -72l209 -260h-120zM123 0h-121l210 260l58 72l136 172h122l-198 -244l-60 -74z" />
    <glyph glyph-name="y" unicode="y" horiz-adv-x="537" 
d="M55 -227l-22 78q46 10 77.5 24.5t52.5 36.5t36 57l34 78l24 35l174 422h101l-235 -544q-28 -64 -63.5 -101.5t-80.5 -57.5t-98 -28zM235 -29l-229 533h105l172 -422z" />
    <glyph glyph-name="yacute" unicode="&#xfd;" horiz-adv-x="537" 
d="M55 -227l-22 78q46 10 77.5 24.5t52.5 36.5t36 57l34 78l24 35l174 422h101l-235 -544q-28 -64 -63.5 -101.5t-80.5 -57.5t-98 -28zM235 -29l-229 533h105l172 -422zM302 569h-67l99 205h110z" />
    <glyph glyph-name="ycircumflex" unicode="&#x177;" horiz-adv-x="537" 
d="M55 -227l-22 78q46 10 77.5 24.5t52.5 36.5t36 57l34 78l24 35l174 422h101l-235 -544q-28 -64 -63.5 -101.5t-80.5 -57.5t-98 -28zM235 -29l-229 533h105l172 -422zM200 569h-87l122 205h67l122 -205h-87l-68 136z" />
    <glyph glyph-name="ydieresis" unicode="&#xff;" horiz-adv-x="537" 
d="M55 -227l-22 78q46 10 77.5 24.5t52.5 36.5t36 57l34 78l24 35l174 422h101l-235 -544q-28 -64 -63.5 -101.5t-80.5 -57.5t-98 -28zM235 -29l-229 533h105l172 -422zM306 721h104v-100h-104v100zM127 721h104v-100h-104v100z" />
    <glyph glyph-name="uni1E8F" unicode="&#x1e8f;" horiz-adv-x="537" 
d="M55 -227l-22 78q46 10 77.5 24.5t52.5 36.5t36 57l34 78l24 35l174 422h101l-235 -544q-28 -64 -63.5 -101.5t-80.5 -57.5t-98 -28zM235 -29l-229 533h105l172 -422zM210 724h117v-106h-117v106z" />
    <glyph glyph-name="uni1EF5" unicode="&#x1ef5;" horiz-adv-x="537" 
d="M55 -227l-22 78q46 10 77.5 24.5t52.5 36.5t36 57l34 78l24 35l174 422h101l-235 -544q-28 -64 -63.5 -101.5t-80.5 -57.5t-98 -28zM235 -29l-229 533h105l172 -422zM356 -87h107v-102h-107v102z" />
    <glyph glyph-name="ygrave" unicode="&#x1ef3;" horiz-adv-x="537" 
d="M55 -227l-22 78q46 10 77.5 24.5t52.5 36.5t36 57l34 78l24 35l174 422h101l-235 -544q-28 -64 -63.5 -101.5t-80.5 -57.5t-98 -28zM235 -29l-229 533h105l172 -422zM235 569l-142 205h110l99 -205h-67z" />
    <glyph glyph-name="uni1EF7" unicode="&#x1ef7;" horiz-adv-x="537" 
d="M55 -227l-22 78q46 10 77.5 24.5t52.5 36.5t36 57l34 78l24 35l174 422h101l-235 -544q-28 -64 -63.5 -101.5t-80.5 -57.5t-98 -28zM235 -29l-229 533h105l172 -422zM300 587v-18h-59v27q0 20 9 34.5t22 25.5t22 21t9 20q0 12 -10 18.5t-29 6.5q-13 0 -26.5 -2.5
t-29.5 -8.5l-17 48q21 10 42 14t41 4q51 0 77.5 -21t26.5 -50q0 -24 -11.5 -39t-27 -26.5t-27.5 -23t-12 -30.5z" />
    <glyph glyph-name="uni0233" unicode="&#x233;" horiz-adv-x="537" 
d="M55 -227l-22 78q46 10 77.5 24.5t52.5 36.5t36 57l34 78l24 35l174 422h101l-235 -544q-28 -64 -63.5 -101.5t-80.5 -57.5t-98 -28zM235 -29l-229 533h105l172 -422zM115 635v72h307v-72h-307z" />
    <glyph glyph-name="uni1EF9" unicode="&#x1ef9;" horiz-adv-x="537" 
d="M55 -227l-22 78q46 10 77.5 24.5t52.5 36.5t36 57l34 78l24 35l174 422h101l-235 -544q-28 -64 -63.5 -101.5t-80.5 -57.5t-98 -28zM235 -29l-229 533h105l172 -422zM102 612q0 61 27 92.5t69 31.5q27 0 52 -14t47 -28.5t41 -14.5q22 0 34 15.5t12 38.5h51
q0 -61 -27 -92.5t-69 -31.5q-27 0 -52 14t-47 28t-41 14q-22 0 -34 -16t-12 -37h-51z" />
    <glyph glyph-name="z" unicode="z" horiz-adv-x="521" 
d="M49 0v70l328 389l11 -33h-330v78h412v-71l-327 -389l-9 34h347v-78h-432z" />
    <glyph glyph-name="zacute" unicode="&#x17a;" horiz-adv-x="521" 
d="M49 0v70l328 389l11 -33h-330v78h412v-71l-327 -389l-9 34h347v-78h-432zM300 569h-67l99 205h110z" />
    <glyph glyph-name="zcaron" unicode="&#x17e;" horiz-adv-x="521" 
d="M49 0v70l328 389l11 -33h-330v78h412v-71l-327 -389l-9 34h347v-78h-432zM335 774h87l-122 -205h-67l-122 205h87l69 -138z" />
    <glyph glyph-name="zdotaccent" unicode="&#x17c;" horiz-adv-x="521" 
d="M49 0v70l328 389l11 -33h-330v78h412v-71l-327 -389l-9 34h347v-78h-432zM208 724h117v-106h-117v106z" />
    <glyph glyph-name="uni1E93" unicode="&#x1e93;" horiz-adv-x="521" 
d="M49 0v70l328 389l11 -33h-330v78h412v-71l-327 -389l-9 34h347v-78h-432zM205 -87h107v-102h-107v102z" />
    <glyph glyph-name="iacute_j.loclNLD" horiz-adv-x="497" 
d="M73 0v504h101v-504h-101zM158 569h-67l99 205h110zM190 -128q15 -4 26.5 -6t22.5 -2q23 0 42 8.5t29.5 29t10.5 57.5v545h101v-553q0 -85 -42.5 -128.5t-117.5 -43.5q-18 0 -36.5 2t-35.5 8v83zM405 569h-67l99 205h110z" />
    <glyph glyph-name="I_J.loclNLD" horiz-adv-x="613" 
d="M83 0v712h103v-712h-103zM266 -178v87q63 -11 98 -6t49 32.5t14 83.5v693h103v-693q0 -85 -25 -134t-83 -64t-156 1z" />
    <glyph glyph-name="i_j.loclNLD" horiz-adv-x="496" 
d="M73 0v504h101v-504h-101zM66 724h117v-106h-117v106zM190 -128q15 -4 26.5 -6t22.5 -2q23 0 42 8.5t29.5 29t10.5 57.5v545h101v-553q0 -85 -42.5 -128.5t-117.5 -43.5q-18 0 -36.5 2t-35.5 8v83zM313 724h117v-106h-117v106z" />
    <glyph glyph-name="ordfeminine" unicode="&#xaa;" horiz-adv-x="336" 
d="M130 409q-30 0 -53.5 13t-37 34t-13.5 45q0 47 38 67t134 20h28v-43h-20q-42 0 -63.5 -4.5t-28.5 -13t-7 -21.5q0 -15 12.5 -26t33.5 -11q26 0 44 16.5t18 46.5v71q0 27 -12.5 38t-40.5 11q-26 0 -51 -7.5t-47 -20.5l-21 62q25 13 58 22t69 9q63 0 96 -30t33 -98v-175
h-82v69l5 -8q-10 -32 -34.5 -49t-57.5 -17z" />
    <glyph glyph-name="ordmasculine" unicode="&#xba;" horiz-adv-x="354" 
d="M177 409q-51 0 -86 20.5t-53 55.5t-18 79t18 78.5t53 54.5t86 20t86 -20t53 -54.5t18 -78.5t-18 -79t-53 -55.5t-86 -20.5zM177 478q34 0 52.5 22.5t18.5 63.5t-18.5 63t-52.5 22t-52 -22t-18 -63t18 -63.5t52 -22.5z" />
    <glyph glyph-name="uni0394" unicode="&#x394;" horiz-adv-x="736" 
d="M32 0v67l295 645h84l294 -645v-67h-673zM124 41l-27 46h544l-27 -46l-260 588h31z" />
    <glyph glyph-name="Sigma" unicode="&#x3a3;" horiz-adv-x="595" 
d="M551 -96v-86h-509v76l287 408v-74l-287 409v75h509v-85h-418v43l261 -370v-69l-261 -371v44h418z" />
    <glyph glyph-name="uni03A9" unicode="&#x3a9;" horiz-adv-x="796" 
d="M398 721q105 0 182.5 -38t119.5 -107t42 -162q0 -98 -52.5 -186.5t-159.5 -173.5l11 31h192v-85h-271v82q87 79 131 162t44 167q0 107 -63.5 166t-175.5 59q-113 0 -176 -59t-63 -166q0 -85 44.5 -167t131.5 -162v-82h-272v85h192l12 -31q-109 85 -161.5 173.5
t-52.5 186.5q0 93 43 162t120 107t182 38z" />
    <glyph glyph-name="uni03BC" unicode="&#x3bc;" horiz-adv-x="585" 
d="M512 504v-504h-98v107l12 4q-21 -58 -67 -88t-106 -30q-35 0 -60.5 9.5t-45.5 27.5l24 33v-279h-101v720h101v-308q0 -62 25.5 -91.5t78.5 -29.5q61 0 98.5 40t37.5 106v283h101z" />
    <glyph glyph-name="pi" unicode="&#x3c0;" horiz-adv-x="605" 
d="M139 0h-106q25 73 41.5 148.5t25 156t8.5 167.5h101q0 -88 -6.5 -167.5t-21.5 -155t-42 -149.5zM5 426v78h562v-78h-562zM348 465h101v-285q0 -51 25 -77t77 -29l49 -4l-8 -78l-47 3q-69 5 -112.5 27t-64 64.5t-20.5 107.5v271z" />
    <glyph glyph-name="zero" unicode="0" horiz-adv-x="600" 
d="M300 -8q-124 0 -189 92.5t-65 271.5q0 178 64.5 271t189.5 93t189.5 -93t64.5 -270q0 -179 -65 -272t-189 -93zM300 75q78 0 114.5 68t36.5 214q0 145 -36.5 212t-114.5 67t-114.5 -67.5t-36.5 -211.5q0 -146 36.5 -214t114.5 -68z" />
    <glyph glyph-name="one" unicode="1" horiz-adv-x="600" 
d="M277 47v596l55 -20l-200 -124v95l189 118h60v-665h-104zM121 0v85h416v-85h-416z" />
    <glyph glyph-name="two" unicode="2" horiz-adv-x="600" 
d="M78 0v77l245 269q47 52 68.5 94.5t21.5 84.5q0 54 -31.5 82.5t-89.5 28.5q-50 0 -99.5 -19.5t-98.5 -58.5l-37 77q43 39 107.5 62t131.5 23t116.5 -23t76.5 -65.5t27 -101.5q0 -61 -27 -116.5t-90 -123.5l-229 -247l-10 42h385v-85h-467z" />
    <glyph glyph-name="three" unicode="3" horiz-adv-x="600" 
d="M290 -7q-70 0 -135 22.5t-108 62.5l37 77q48 -39 98 -58.5t105 -19.5q73 0 109.5 30.5t36.5 92.5q0 60 -38 89.5t-115 29.5h-87v84h71q74 0 112.5 31t38.5 90q0 54 -32 83t-91 29q-51 0 -100.5 -19.5t-97.5 -58.5l-37 77q43 39 107.5 62t132.5 23q66 0 116 -22.5
t76.5 -64.5t26.5 -98q0 -65 -34 -111t-94 -63l-2 10q71 -15 109 -61t38 -117q0 -93 -65.5 -146.5t-177.5 -53.5z" />
    <glyph glyph-name="four" unicode="4" horiz-adv-x="600" 
d="M364 0v583h27l-273 -393l1 41h452v-83h-526v77l338 487h83v-712h-102z" />
    <glyph glyph-name="five" unicode="5" horiz-adv-x="600" 
d="M306 -7q-66 0 -130 23t-106 62l36 77q49 -38 99 -58t102 -20q71 0 110.5 38.5t39.5 106.5q0 44 -18 76.5t-50.5 50.5t-76.5 18q-46 0 -85 -18t-70 -55h-66v418h436v-83h-334v-264l-32 5q30 39 73.5 60t99.5 21q67 0 117.5 -28.5t78 -79.5t27.5 -119t-31 -120.5t-87 -81.5
t-133 -29z" />
    <glyph glyph-name="six" unicode="6" horiz-adv-x="600" 
d="M323 -8q-131 0 -203 90t-72 258q0 120 33.5 205t97 130t151.5 45q63 0 122 -22t104 -63l-37 -77q-49 41 -95 59.5t-91 18.5q-87 0 -134.5 -76.5t-47.5 -217.5v-72l-13 26q9 48 37 82.5t69.5 53.5t91.5 19q65 0 115 -28.5t77.5 -80t27.5 -118.5t-30 -119.5t-82.5 -82.5
t-120.5 -30zM318 76q62 0 100.5 40t38.5 106q0 65 -38.5 105t-101.5 40q-42 0 -74.5 -18.5t-50.5 -51.5t-18 -75q0 -44 18 -76.5t50.5 -51t75.5 -18.5z" />
    <glyph glyph-name="seven" unicode="7" horiz-adv-x="600" 
d="M212 0h-111l347 663l5 -36h-394v85h482v-77z" />
    <glyph glyph-name="eight" unicode="8" horiz-adv-x="600" 
d="M300 -7q-79 0 -137 23.5t-90.5 68t-32.5 105.5q0 75 49.5 123.5t133.5 59.5l-4 -15q-77 15 -120 60.5t-43 111.5q0 59 31.5 101.5t86 65.5t126.5 23t126.5 -23t86 -65.5t31.5 -101.5q0 -66 -43 -112t-119 -60l-5 15q86 -12 134.5 -61t48.5 -122q0 -61 -32.5 -105.5
t-90.5 -68t-137 -23.5zM300 75q76 0 118.5 31.5t42.5 90.5q0 57 -45.5 89t-115.5 40q-70 -8 -115.5 -40t-45.5 -89q0 -59 42.5 -90.5t118.5 -31.5zM300 395q63 8 103 40t40 86q0 56 -38 86.5t-105 30.5t-105 -30.5t-38 -86.5q0 -54 40 -86t103 -40z" />
    <glyph glyph-name="nine" unicode="9" horiz-adv-x="600" 
d="M277 720q132 0 203.5 -90t71.5 -258q0 -120 -33.5 -205t-96.5 -130t-152 -45q-62 0 -121.5 22t-104.5 63l38 77q50 -41 95.5 -59.5t90.5 -18.5q87 0 134 76.5t47 217.5v72l14 -26q-9 -48 -37 -82.5t-70 -53.5t-92 -19q-65 0 -114.5 28.5t-77.5 80t-28 118.5t30 119.5
t83 82.5t120 30zM283 636q-63 0 -101 -40t-38 -106q0 -65 38 -105t102 -40q41 0 74 18.5t51 51.5t18 75q0 44 -18 76.5t-51 51t-75 18.5z" />
    <glyph glyph-name="uni2080" unicode="&#x2080;" horiz-adv-x="380" 
d="M190 -4q-75 0 -118.5 54.5t-43.5 163.5q0 110 43.5 163.5t118.5 53.5t118 -53.5t43 -163.5q0 -109 -43 -163.5t-118 -54.5zM190 65q37 0 55 35t18 114q0 78 -18 113t-55 35t-55 -35t-18 -113q0 -79 18 -114t55 -35z" />
    <glyph glyph-name="uni2081" unicode="&#x2081;" horiz-adv-x="380" 
d="M172 42v312l38 -3l-111 -65v86l96 55h66v-385h-89zM94 0v72h244v-72h-244z" />
    <glyph glyph-name="uni2082" unicode="&#x2082;" horiz-adv-x="380" 
d="M49 0v66l141 153q23 25 35 46.5t12 42.5q0 26 -16 39.5t-45 13.5q-27 0 -58 -11.5t-58 -31.5l-25 65q28 20 69.5 34t83.5 14q65 0 102.5 -32.5t37.5 -84.5q0 -36 -17 -69.5t-60 -75.5l-120 -122l-6 25h216v-72h-292z" />
    <glyph glyph-name="uni2083" unicode="&#x2083;" horiz-adv-x="380" 
d="M184 -4q-43 0 -85 13.5t-69 34.5l23 65q29 -20 60.5 -31.5t64.5 -11.5q35 0 55 14t20 43q0 31 -20 44.5t-57 13.5h-61v70h50q37 0 56.5 14.5t19.5 43.5q0 25 -16.5 38.5t-45.5 13.5t-60.5 -11.5t-58.5 -31.5l-25 65q28 20 69.5 34t79.5 14q70 0 106.5 -33t36.5 -82
q0 -37 -21.5 -63.5t-54.5 -35.5v5q40 -9 63.5 -35.5t23.5 -69.5q0 -36 -18.5 -63t-53 -42.5t-82.5 -15.5z" />
    <glyph glyph-name="uni2084" unicode="&#x2084;" horiz-adv-x="380" 
d="M219 0v328l17 2l-149 -209l-2 25h278v-68h-337v64l203 285h72v-427h-82z" />
    <glyph glyph-name="uni2085" unicode="&#x2085;" horiz-adv-x="380" 
d="M190 -4q-40 0 -81 13.5t-68 34.5l24 65q57 -42 118 -42q39 0 60 18t21 51q0 32 -20.5 50t-55.5 18q-25 0 -47 -8t-40 -23h-47v254h273v-71h-191v-123l-19 3q18 19 42 29t54 10q58 0 97 -36.5t39 -99.5q0 -66 -45.5 -104.5t-113.5 -38.5z" />
    <glyph glyph-name="uni2086" unicode="&#x2086;" horiz-adv-x="380" 
d="M202 -4q-50 0 -88 22.5t-60 68.5t-22 118q0 77 24 127t65.5 74.5t92.5 24.5q35 0 71.5 -13t66.5 -35l-24 -65q-28 20 -56 31.5t-56 11.5q-30 0 -52 -15t-34.5 -48.5t-12.5 -88.5v-33l-13 21q11 35 43 55t71 20q37 0 67.5 -16t48 -45.5t17.5 -72.5q0 -67 -43 -104.5
t-106 -37.5zM200 61q33 0 52 20t19 54q0 33 -19 52.5t-51 19.5q-33 0 -53 -19.5t-20 -52.5q0 -34 20 -54t52 -20z" />
    <glyph glyph-name="uni2087" unicode="&#x2087;" horiz-adv-x="380" 
d="M159 0h-99l199 380v-27h-220v74h302v-70z" />
    <glyph glyph-name="uni2088" unicode="&#x2088;" horiz-adv-x="380" 
d="M190 -4q-77 0 -121 32t-44 87q0 44 30 73.5t80 35.5l-1 -10q-46 8 -72.5 37t-26.5 67q0 52 42 82.5t113 30.5t112.5 -30.5t41.5 -82.5q0 -39 -26 -68t-71 -35l-2 9q50 -7 79.5 -36.5t29.5 -72.5q0 -55 -44 -87t-120 -32zM190 61q41 0 61.5 16.5t20.5 44.5q0 54 -82 68
q-42 -7 -62 -23.5t-20 -44.5t20.5 -44.5t61.5 -16.5zM190 242q35 8 53.5 24t18.5 41q0 28 -18.5 43.5t-53.5 15.5t-54 -15.5t-19 -43.5q0 -25 19.5 -41t53.5 -24z" />
    <glyph glyph-name="uni2089" unicode="&#x2089;" horiz-adv-x="380" 
d="M178 431q50 0 88 -22t59.5 -68t21.5 -119q0 -77 -24 -127t-65 -74.5t-92 -24.5q-35 0 -72 13t-66 35l24 65q28 -20 56 -31.5t56 -11.5q30 0 51.5 15t34 48.5t12.5 88.5v33l14 -20q-11 -35 -43 -55t-71 -20q-37 0 -67.5 15.5t-48 45t-17.5 72.5q0 67 43 104.5t106 37.5z
M180 366q-33 0 -52.5 -20t-19.5 -54q0 -33 19.5 -52.5t51.5 -19.5t52.5 19.5t20.5 52.5q0 34 -20 54t-52 20z" />
    <glyph glyph-name="zero.dnom" horiz-adv-x="380" 
d="M190 -4q-75 0 -118.5 54.5t-43.5 163.5q0 110 43.5 163.5t118.5 53.5t118 -53.5t43 -163.5q0 -109 -43 -163.5t-118 -54.5zM190 65q37 0 55 35t18 114q0 78 -18 113t-55 35t-55 -35t-18 -113q0 -79 18 -114t55 -35z" />
    <glyph glyph-name="one.dnom" horiz-adv-x="380" 
d="M172 42v312l38 -3l-111 -65v86l96 55h66v-385h-89zM94 0v72h244v-72h-244z" />
    <glyph glyph-name="two.dnom" horiz-adv-x="380" 
d="M49 0v66l141 153q23 25 35 46.5t12 42.5q0 26 -16 39.5t-45 13.5q-27 0 -58 -11.5t-58 -31.5l-25 65q28 20 69.5 34t83.5 14q65 0 102.5 -32.5t37.5 -84.5q0 -36 -17 -69.5t-60 -75.5l-120 -122l-6 25h216v-72h-292z" />
    <glyph glyph-name="three.dnom" horiz-adv-x="380" 
d="M184 -4q-43 0 -85 13.5t-69 34.5l23 65q29 -20 60.5 -31.5t64.5 -11.5q35 0 55 14t20 43q0 31 -20 44.5t-57 13.5h-61v70h50q37 0 56.5 14.5t19.5 43.5q0 25 -16.5 38.5t-45.5 13.5t-60.5 -11.5t-58.5 -31.5l-25 65q28 20 69.5 34t79.5 14q70 0 106.5 -33t36.5 -82
q0 -37 -21.5 -63.5t-54.5 -35.5v5q40 -9 63.5 -35.5t23.5 -69.5q0 -36 -18.5 -63t-53 -42.5t-82.5 -15.5z" />
    <glyph glyph-name="four.dnom" horiz-adv-x="380" 
d="M219 0v328l17 2l-149 -209l-2 25h278v-68h-337v64l203 285h72v-427h-82z" />
    <glyph glyph-name="five.dnom" horiz-adv-x="380" 
d="M190 -4q-40 0 -81 13.5t-68 34.5l24 65q57 -42 118 -42q39 0 60 18t21 51q0 32 -20.5 50t-55.5 18q-25 0 -47 -8t-40 -23h-47v254h273v-71h-191v-123l-19 3q18 19 42 29t54 10q58 0 97 -36.5t39 -99.5q0 -66 -45.5 -104.5t-113.5 -38.5z" />
    <glyph glyph-name="six.dnom" horiz-adv-x="380" 
d="M202 -4q-50 0 -88 22.5t-60 68.5t-22 118q0 77 24 127t65.5 74.5t92.5 24.5q35 0 71.5 -13t66.5 -35l-24 -65q-28 20 -56 31.5t-56 11.5q-30 0 -52 -15t-34.5 -48.5t-12.5 -88.5v-33l-13 21q11 35 43 55t71 20q37 0 67.5 -16t48 -45.5t17.5 -72.5q0 -67 -43 -104.5
t-106 -37.5zM200 61q33 0 52 20t19 54q0 33 -19 52.5t-51 19.5q-33 0 -53 -19.5t-20 -52.5q0 -34 20 -54t52 -20z" />
    <glyph glyph-name="seven.dnom" horiz-adv-x="380" 
d="M159 0h-99l199 380v-27h-220v74h302v-70z" />
    <glyph glyph-name="eight.dnom" horiz-adv-x="380" 
d="M190 -4q-77 0 -121 32t-44 87q0 44 30 73.5t80 35.5l-1 -10q-46 8 -72.5 37t-26.5 67q0 52 42 82.5t113 30.5t112.5 -30.5t41.5 -82.5q0 -39 -26 -68t-71 -35l-2 9q50 -7 79.5 -36.5t29.5 -72.5q0 -55 -44 -87t-120 -32zM190 61q41 0 61.5 16.5t20.5 44.5q0 54 -82 68
q-42 -7 -62 -23.5t-20 -44.5t20.5 -44.5t61.5 -16.5zM190 242q35 8 53.5 24t18.5 41q0 28 -18.5 43.5t-53.5 15.5t-54 -15.5t-19 -43.5q0 -25 19.5 -41t53.5 -24z" />
    <glyph glyph-name="nine.dnom" horiz-adv-x="380" 
d="M178 431q50 0 88 -22t59.5 -68t21.5 -119q0 -77 -24 -127t-65 -74.5t-92 -24.5q-35 0 -72 13t-66 35l24 65q28 -20 56 -31.5t56 -11.5q30 0 51.5 15t34 48.5t12.5 88.5v33l14 -20q-11 -35 -43 -55t-71 -20q-37 0 -67.5 15.5t-48 45t-17.5 72.5q0 67 43 104.5t106 37.5z
M180 366q-33 0 -52.5 -20t-19.5 -54q0 -33 19.5 -52.5t51.5 -19.5t52.5 19.5t20.5 52.5q0 34 -20 54t-52 20z" />
    <glyph glyph-name="zero.numr" horiz-adv-x="380" 
d="M190 281q-75 0 -118.5 54.5t-43.5 163.5q0 110 43.5 163.5t118.5 53.5t118 -53.5t43 -163.5q0 -109 -43 -163.5t-118 -54.5zM190 350q37 0 55 35t18 114q0 78 -18 113t-55 35t-55 -35t-18 -113q0 -79 18 -114t55 -35z" />
    <glyph glyph-name="one.numr" horiz-adv-x="380" 
d="M172 327v312l38 -3l-111 -65v86l96 55h66v-385h-89zM94 285v72h244v-72h-244z" />
    <glyph glyph-name="two.numr" horiz-adv-x="380" 
d="M49 285v66l141 153q23 25 35 46.5t12 42.5q0 26 -16 39.5t-45 13.5q-27 0 -58 -11.5t-58 -31.5l-25 65q28 20 69.5 34t83.5 14q65 0 102.5 -32.5t37.5 -84.5q0 -36 -17 -69.5t-60 -75.5l-120 -122l-6 25h216v-72h-292z" />
    <glyph glyph-name="three.numr" horiz-adv-x="380" 
d="M184 281q-43 0 -85 13.5t-69 34.5l23 65q29 -20 60.5 -31.5t64.5 -11.5q35 0 55 14t20 43q0 31 -20 44.5t-57 13.5h-61v70h50q37 0 56.5 14.5t19.5 43.5q0 25 -16.5 38.5t-45.5 13.5t-60.5 -11.5t-58.5 -31.5l-25 65q28 20 69.5 34t79.5 14q70 0 106.5 -33t36.5 -82
q0 -37 -21.5 -63.5t-54.5 -35.5v5q40 -9 63.5 -35.5t23.5 -69.5q0 -36 -18.5 -63t-53 -42.5t-82.5 -15.5z" />
    <glyph glyph-name="four.numr" horiz-adv-x="380" 
d="M219 285v328l17 2l-149 -209l-2 25h278v-68h-337v64l203 285h72v-427h-82z" />
    <glyph glyph-name="five.numr" horiz-adv-x="380" 
d="M190 281q-40 0 -81 13.5t-68 34.5l24 65q57 -42 118 -42q39 0 60 18t21 51q0 32 -20.5 50t-55.5 18q-25 0 -47 -8t-40 -23h-47v254h273v-71h-191v-123l-19 3q18 19 42 29t54 10q58 0 97 -36.5t39 -99.5q0 -66 -45.5 -104.5t-113.5 -38.5z" />
    <glyph glyph-name="six.numr" horiz-adv-x="380" 
d="M202 281q-50 0 -88 22.5t-60 68.5t-22 118q0 77 24 127t65.5 74.5t92.5 24.5q35 0 71.5 -13t66.5 -35l-24 -65q-28 20 -56 31.5t-56 11.5q-30 0 -52 -15t-34.5 -48.5t-12.5 -88.5v-33l-13 21q11 35 43 55t71 20q37 0 67.5 -16t48 -45.5t17.5 -72.5q0 -67 -43 -104.5
t-106 -37.5zM200 346q33 0 52 20t19 54q0 33 -19 52.5t-51 19.5q-33 0 -53 -19.5t-20 -52.5q0 -34 20 -54t52 -20z" />
    <glyph glyph-name="seven.numr" horiz-adv-x="380" 
d="M159 285h-99l199 380v-27h-220v74h302v-70z" />
    <glyph glyph-name="eight.numr" horiz-adv-x="380" 
d="M190 281q-77 0 -121 32t-44 87q0 44 30 73.5t80 35.5l-1 -10q-46 8 -72.5 37t-26.5 67q0 52 42 82.5t113 30.5t112.5 -30.5t41.5 -82.5q0 -39 -26 -68t-71 -35l-2 9q50 -7 79.5 -36.5t29.5 -72.5q0 -55 -44 -87t-120 -32zM190 346q41 0 61.5 16.5t20.5 44.5q0 54 -82 68
q-42 -7 -62 -23.5t-20 -44.5t20.5 -44.5t61.5 -16.5zM190 527q35 8 53.5 24t18.5 41q0 28 -18.5 43.5t-53.5 15.5t-54 -15.5t-19 -43.5q0 -25 19.5 -41t53.5 -24z" />
    <glyph glyph-name="nine.numr" horiz-adv-x="380" 
d="M178 716q50 0 88 -22t59.5 -68t21.5 -119q0 -77 -24 -127t-65 -74.5t-92 -24.5q-35 0 -72 13t-66 35l24 65q28 -20 56 -31.5t56 -11.5q30 0 51.5 15t34 48.5t12.5 88.5v33l14 -20q-11 -35 -43 -55t-71 -20q-37 0 -67.5 15.5t-48 45t-17.5 72.5q0 67 43 104.5t106 37.5z
M180 651q-33 0 -52.5 -20t-19.5 -54q0 -33 19.5 -52.5t51.5 -19.5t52.5 19.5t20.5 52.5q0 34 -20 54t-52 20z" />
    <glyph glyph-name="uni2070" unicode="&#x2070;" horiz-adv-x="380" 
d="M190 281q-75 0 -118.5 54.5t-43.5 163.5q0 110 43.5 163.5t118.5 53.5t118 -53.5t43 -163.5q0 -109 -43 -163.5t-118 -54.5zM190 350q37 0 55 35t18 114q0 78 -18 113t-55 35t-55 -35t-18 -113q0 -79 18 -114t55 -35z" />
    <glyph glyph-name="uni00B9" unicode="&#xb9;" horiz-adv-x="380" 
d="M172 327v312l38 -3l-111 -65v86l96 55h66v-385h-89zM94 285v72h244v-72h-244z" />
    <glyph glyph-name="uni00B2" unicode="&#xb2;" horiz-adv-x="380" 
d="M49 285v66l141 153q23 25 35 46.5t12 42.5q0 26 -16 39.5t-45 13.5q-27 0 -58 -11.5t-58 -31.5l-25 65q28 20 69.5 34t83.5 14q65 0 102.5 -32.5t37.5 -84.5q0 -36 -17 -69.5t-60 -75.5l-120 -122l-6 25h216v-72h-292z" />
    <glyph glyph-name="uni00B3" unicode="&#xb3;" horiz-adv-x="380" 
d="M184 281q-43 0 -85 13.5t-69 34.5l23 65q29 -20 60.5 -31.5t64.5 -11.5q35 0 55 14t20 43q0 31 -20 44.5t-57 13.5h-61v70h50q37 0 56.5 14.5t19.5 43.5q0 25 -16.5 38.5t-45.5 13.5t-60.5 -11.5t-58.5 -31.5l-25 65q28 20 69.5 34t79.5 14q70 0 106.5 -33t36.5 -82
q0 -37 -21.5 -63.5t-54.5 -35.5v5q40 -9 63.5 -35.5t23.5 -69.5q0 -36 -18.5 -63t-53 -42.5t-82.5 -15.5z" />
    <glyph glyph-name="uni2074" unicode="&#x2074;" horiz-adv-x="380" 
d="M219 285v328l17 2l-149 -209l-2 25h278v-68h-337v64l203 285h72v-427h-82z" />
    <glyph glyph-name="uni2075" unicode="&#x2075;" horiz-adv-x="380" 
d="M190 281q-40 0 -81 13.5t-68 34.5l24 65q57 -42 118 -42q39 0 60 18t21 51q0 32 -20.5 50t-55.5 18q-25 0 -47 -8t-40 -23h-47v254h273v-71h-191v-123l-19 3q18 19 42 29t54 10q58 0 97 -36.5t39 -99.5q0 -66 -45.5 -104.5t-113.5 -38.5z" />
    <glyph glyph-name="uni2076" unicode="&#x2076;" horiz-adv-x="380" 
d="M202 281q-50 0 -88 22.5t-60 68.5t-22 118q0 77 24 127t65.5 74.5t92.5 24.5q35 0 71.5 -13t66.5 -35l-24 -65q-28 20 -56 31.5t-56 11.5q-30 0 -52 -15t-34.5 -48.5t-12.5 -88.5v-33l-13 21q11 35 43 55t71 20q37 0 67.5 -16t48 -45.5t17.5 -72.5q0 -67 -43 -104.5
t-106 -37.5zM200 346q33 0 52 20t19 54q0 33 -19 52.5t-51 19.5q-33 0 -53 -19.5t-20 -52.5q0 -34 20 -54t52 -20z" />
    <glyph glyph-name="uni2077" unicode="&#x2077;" horiz-adv-x="380" 
d="M159 285h-99l199 380v-27h-220v74h302v-70z" />
    <glyph glyph-name="uni2078" unicode="&#x2078;" horiz-adv-x="380" 
d="M190 281q-77 0 -121 32t-44 87q0 44 30 73.5t80 35.5l-1 -10q-46 8 -72.5 37t-26.5 67q0 52 42 82.5t113 30.5t112.5 -30.5t41.5 -82.5q0 -39 -26 -68t-71 -35l-2 9q50 -7 79.5 -36.5t29.5 -72.5q0 -55 -44 -87t-120 -32zM190 346q41 0 61.5 16.5t20.5 44.5q0 54 -82 68
q-42 -7 -62 -23.5t-20 -44.5t20.5 -44.5t61.5 -16.5zM190 527q35 8 53.5 24t18.5 41q0 28 -18.5 43.5t-53.5 15.5t-54 -15.5t-19 -43.5q0 -25 19.5 -41t53.5 -24z" />
    <glyph glyph-name="uni2079" unicode="&#x2079;" horiz-adv-x="380" 
d="M178 716q50 0 88 -22t59.5 -68t21.5 -119q0 -77 -24 -127t-65 -74.5t-92 -24.5q-35 0 -72 13t-66 35l24 65q28 -20 56 -31.5t56 -11.5q30 0 51.5 15t34 48.5t12.5 88.5v33l14 -20q-11 -35 -43 -55t-71 -20q-37 0 -67.5 15.5t-48 45t-17.5 72.5q0 67 43 104.5t106 37.5z
M180 651q-33 0 -52.5 -20t-19.5 -54q0 -33 19.5 -52.5t51.5 -19.5t52.5 19.5t20.5 52.5q0 34 -20 54t-52 20z" />
    <glyph glyph-name="fraction" unicode="&#x2044;" horiz-adv-x="183" 
d="M-83 -26l-71 40l420 724l70 -40z" />
    <glyph glyph-name="onehalf" unicode="&#xbd;" horiz-adv-x="943" 
d="M172 327v312l38 -3l-111 -65v86l96 55h66v-385h-89zM94 285v72h244v-72h-244zM297 -26l-71 40l420 724l70 -40zM612 0v66l141 153q23 25 35 46.5t12 42.5q0 26 -16 39.5t-45 13.5q-27 0 -58 -11.5t-58 -31.5l-25 65q28 20 69.5 34t83.5 14q65 0 102.5 -32.5t37.5 -84.5
q0 -36 -17 -69.5t-60 -75.5l-120 -122l-6 25h216v-72h-292z" />
    <glyph glyph-name="onequarter" unicode="&#xbc;" horiz-adv-x="943" 
d="M172 327v312l38 -3l-111 -65v86l96 55h66v-385h-89zM94 285v72h244v-72h-244zM297 -26l-71 40l420 724l70 -40zM782 0v328l17 2l-149 -209l-2 25h278v-68h-337v64l203 285h72v-427h-82z" />
    <glyph glyph-name="threequarters" unicode="&#xbe;" horiz-adv-x="943" 
d="M184 281q-43 0 -85 13.5t-69 34.5l23 65q29 -20 60.5 -31.5t64.5 -11.5q35 0 55 14t20 43q0 31 -20 44.5t-57 13.5h-61v70h50q37 0 56.5 14.5t19.5 43.5q0 25 -16.5 38.5t-45.5 13.5t-60.5 -11.5t-58.5 -31.5l-25 65q28 20 69.5 34t79.5 14q70 0 106.5 -33t36.5 -82
q0 -37 -21.5 -63.5t-54.5 -35.5v5q40 -9 63.5 -35.5t23.5 -69.5q0 -36 -18.5 -63t-53 -42.5t-82.5 -15.5zM297 -26l-71 40l420 724l70 -40zM782 0v328l17 2l-149 -209l-2 25h278v-68h-337v64l203 285h72v-427h-82z" />
    <glyph glyph-name="period" unicode="." horiz-adv-x="240" 
d="M60 120h120v-120h-120v120z" />
    <glyph glyph-name="comma" unicode="," horiz-adv-x="240" 
d="M110 -123l-43 34q29 30 39.5 56.5t10.5 54.5l28 -22h-85v120h120v-82q0 -45 -15.5 -84t-54.5 -77z" />
    <glyph glyph-name="colon" unicode=":" horiz-adv-x="240" 
d="M60 120h120v-120h-120v120zM60 493h120v-120h-120v120z" />
    <glyph glyph-name="semicolon" unicode=";" horiz-adv-x="240" 
d="M60 493h120v-120h-120v120zM110 -123l-43 34q29 30 39.5 56.5t10.5 54.5l28 -22h-85v120h120v-82q0 -45 -15.5 -84t-54.5 -77z" />
    <glyph glyph-name="ellipsis" unicode="&#x2026;" horiz-adv-x="720" 
d="M60 120h120v-120h-120v120zM300 120h120v-120h-120v120zM540 120h120v-120h-120v120z" />
    <glyph glyph-name="exclam" unicode="!" horiz-adv-x="240" 
d="M89 199l-32 513h126l-32 -513h-62zM60 120h120v-120h-120v120z" />
    <glyph glyph-name="exclamdown" unicode="&#xa1;" horiz-adv-x="240" 
d="M89 293h62l32 -475h-126zM60 373v120h120v-120h-120z" />
    <glyph glyph-name="question" unicode="?" horiz-adv-x="454" 
d="M88 682q34 20 72 29t73 9q61 0 106 -20.5t70 -56.5t25 -84q0 -45 -17 -80t-43.5 -64.5t-54 -58.5t-47.5 -62t-24 -74l-4 -23h-59v32q0 50 14.5 86.5t36.5 65t43.5 55t36 54t14.5 61.5q0 39 -27 61.5t-76 22.5q-33 0 -68.5 -10.5t-70.5 -31.5v89zM155 0v120h120v-120h-120
z" />
    <glyph glyph-name="questiondown" unicode="&#xbf;" horiz-adv-x="454" 
d="M221 -189q-56 0 -102 19t-72.5 55t-26.5 86q0 43 17.5 74.5t43.5 56t53.5 49t47.5 53.5t24 70l4 22h60v-32q0 -48 -14.5 -81t-36.5 -57.5t-44 -45.5t-36.5 -45t-14.5 -56q0 -37 27 -60t75 -23q35 0 70 10.5t70 31.5v-89q-34 -21 -71.5 -29.5t-73.5 -8.5zM179 373v120h120
v-120h-120z" />
    <glyph glyph-name="periodcentered" unicode="&#xb7;" horiz-adv-x="240" 
d="M60 329h120v-120h-120v120z" />
    <glyph glyph-name="bullet" unicode="&#x2022;" horiz-adv-x="529" 
d="M265 89q-49 0 -91 23.5t-67 64.5t-25 91q0 46 23.5 87t65 66.5t94.5 25.5q49 0 90 -23.5t66.5 -63.5t25.5 -92q0 -49 -24.5 -90t-66 -65t-91.5 -24z" />
    <glyph glyph-name="asterisk" unicode="*" horiz-adv-x="456" 
d="M142 355l-59 43l95 119l-148 42l24 71l142 -53l-6 151h74l-6 -151l144 53l22 -71l-146 -42l94 -119l-60 -43l-84 127z" />
    <glyph glyph-name="numbersign" unicode="#" horiz-adv-x="606" 
d="M306 0l140 712h74l-139 -712h-75zM39 179v69h507v-69h-507zM86 0l139 712h75l-140 -712h-74zM60 472v69h507v-69h-507z" />
    <glyph glyph-name="slash" unicode="/" horiz-adv-x="299" 
d="M64 -57h-88l258 808h89z" />
    <glyph glyph-name="backslash" unicode="\" horiz-adv-x="298" 
d="M233 -57l-257 808h88l258 -808h-89z" />
    <glyph glyph-name="periodcentered.loclCAT" horiz-adv-x="303" 
d="M92 312h119v-109h-119v109z" />
    <glyph glyph-name="parenleft" unicode="(" horiz-adv-x="334" 
d="M222 -182q-43 79 -69.5 153t-38 146.5t-11.5 148.5t12 149t38 146.5t69 150.5h83q-38 -91 -59 -166.5t-30 -144t-9 -135.5q0 -68 9 -136t30 -144.5t58 -167.5h-82z" />
    <glyph glyph-name="parenright" unicode=")" horiz-adv-x="334" 
d="M112 -182h-81q37 91 57.5 167.5t29.5 144.5t9 136q0 67 -8.5 135.5t-29.5 144t-59 166.5h83q63 -115 90.5 -224t27.5 -222q0 -76 -11.5 -148.5t-37.5 -146.5t-70 -153z" />
    <glyph glyph-name="braceleft" unicode="{" horiz-adv-x="371" 
d="M301 -182q-75 0 -115 37.5t-40 109.5v170q0 47 -15 68.5t-53 29.5l-32 9v46l32 9q38 9 53 30t15 68v170q0 72 41.5 109.5t113.5 37.5h60v-78h-47q-29 0 -48.5 -21t-19.5 -63v-176q0 -37 -14.5 -61t-36.5 -36.5t-43 -12.5v4q21 0 43 -13t36.5 -38t14.5 -61v-176
q0 -42 19.5 -62.5t48.5 -20.5h47v-79h-60z" />
    <glyph glyph-name="braceright" unicode="}" horiz-adv-x="372" 
d="M70 -182h-60v79h48q28 0 47.5 20.5t19.5 62.5v176q0 36 15 61t36.5 38t42.5 13v-4q-21 0 -42.5 12.5t-36.5 36.5t-15 61v176q0 42 -19.5 63t-47.5 21h-48v78h60q71 0 113 -37.5t42 -109.5v-170q0 -47 15 -68t53 -30l31 -9v-46l-31 -9q-38 -8 -53 -29.5t-15 -68.5v-170
q0 -72 -40 -109.5t-115 -37.5z" />
    <glyph glyph-name="bracketleft" unicode="[" horiz-adv-x="334" 
d="M109 -182v894h215v-78h-115v-737h115v-79h-215z" />
    <glyph glyph-name="bracketright" unicode="]" horiz-adv-x="334" 
d="M225 -182h-215v79h115v737h-115v78h215v-894z" />
    <glyph glyph-name="hyphen" unicode="-" horiz-adv-x="433" 
d="M71 228v82h291v-82h-291z" />
    <glyph glyph-name="uni00AD" unicode="&#xad;" horiz-adv-x="433" 
d="M71 228v82h291v-82h-291z" />
    <glyph glyph-name="endash" unicode="&#x2013;" horiz-adv-x="505" 
d="M0 238v63h505v-63h-505z" />
    <glyph glyph-name="emdash" unicode="&#x2014;" horiz-adv-x="1010" 
d="M0 238v63h1010v-63h-1010z" />
    <glyph glyph-name="figuredash" unicode="&#x2012;" horiz-adv-x="606" 
d="M71 238v63h464v-63h-464z" />
    <glyph glyph-name="uni2015" unicode="&#x2015;" horiz-adv-x="1010" 
d="M0 238v63h1010v-63h-1010z" />
    <glyph glyph-name="uni2010" unicode="&#x2010;" horiz-adv-x="433" 
d="M71 228v82h291v-82h-291z" />
    <glyph glyph-name="underscore" unicode="_" horiz-adv-x="505" 
d="M10 -63v63h485v-63h-485z" />
    <glyph glyph-name="quotesinglbase" unicode="&#x201a;" horiz-adv-x="240" 
d="M110 -123l-43 34q29 30 39.5 56.5t10.5 54.5l28 -22h-85v120h120v-82q0 -45 -15.5 -84t-54.5 -77z" />
    <glyph glyph-name="quotedblbase" unicode="&#x201e;" horiz-adv-x="420" 
d="M110 -123l-43 34q29 30 39.5 56.5t10.5 54.5l28 -22h-85v120h120v-82q0 -45 -15.5 -84t-54.5 -77zM290 -123l-43 34q29 30 39.5 56.5t10.5 54.5l28 -22h-85v120h120v-82q0 -45 -15.5 -84t-54.5 -77z" />
    <glyph glyph-name="quotedblleft" unicode="&#x201c;" horiz-adv-x="420" 
d="M129 719l44 -35q-29 -30 -40 -56.5t-11 -54.5l-27 22h85v-120h-120v81q0 46 15.5 85t53.5 78zM309 719l44 -35q-29 -30 -40 -56.5t-11 -54.5l-27 22h85v-120h-120v81q0 46 15.5 85t53.5 78z" />
    <glyph glyph-name="quotedblright" unicode="&#x201d;" horiz-adv-x="420" 
d="M110 468l-43 35q29 31 39.5 57t10.5 54l28 -22h-85v120h120v-82q0 -45 -15.5 -83.5t-54.5 -78.5zM290 468l-43 35q29 31 39.5 57t10.5 54l28 -22h-85v120h120v-82q0 -45 -15.5 -83.5t-54.5 -78.5z" />
    <glyph glyph-name="quoteleft" unicode="&#x2018;" horiz-adv-x="240" 
d="M129 719l44 -35q-29 -30 -40 -56.5t-11 -54.5l-27 22h85v-120h-120v81q0 46 15.5 85t53.5 78z" />
    <glyph glyph-name="quoteright" unicode="&#x2019;" horiz-adv-x="240" 
d="M110 468l-43 35q29 31 39.5 57t10.5 54l28 -22h-85v120h120v-82q0 -45 -15.5 -83.5t-54.5 -78.5z" />
    <glyph glyph-name="guillemotleft" unicode="&#xab;" horiz-adv-x="469" 
d="M158 87l-133 180l134 182h90l-130 -181l127 -181h-88zM353 87l-133 180l134 182h90l-130 -181l127 -181h-88z" />
    <glyph glyph-name="guillemotright" unicode="&#xbb;" horiz-adv-x="469" 
d="M117 87h-89l128 181l-130 181h90l134 -182zM312 87h-89l128 181l-130 181h90l134 -182z" />
    <glyph glyph-name="guilsinglleft" unicode="&#x2039;" horiz-adv-x="274" 
d="M158 87l-133 180l134 182h90l-130 -181l127 -181h-88z" />
    <glyph glyph-name="guilsinglright" unicode="&#x203a;" horiz-adv-x="274" 
d="M117 87h-89l128 181l-130 181h90l134 -182z" />
    <glyph glyph-name="quotedbl" unicode="&#x22;" horiz-adv-x="438" 
d="M83 426l-26 286h118l-24 -286h-68zM289 426l-26 286h118l-24 -286h-68z" />
    <glyph glyph-name="quotesingle" unicode="'" horiz-adv-x="232" 
d="M83 426l-26 286h118l-24 -286h-68z" />
    <glyph glyph-name="uni2007" unicode="&#x2007;" horiz-adv-x="606" 
 />
    <glyph glyph-name="uni200A" unicode="&#x200a;" horiz-adv-x="101" 
 />
    <glyph glyph-name="uni2008" unicode="&#x2008;" horiz-adv-x="240" 
 />
    <glyph glyph-name="space" unicode=" " horiz-adv-x="267" 
 />
    <glyph glyph-name="uni00A0" unicode="&#xa0;" horiz-adv-x="267" 
 />
    <glyph glyph-name="uni2009" unicode="&#x2009;" horiz-adv-x="202" 
 />
    <glyph glyph-name="uni200B" unicode="&#x200b;" 
 />
    <glyph glyph-name="CR" unicode="&#xd;" horiz-adv-x="267" 
 />
    <glyph glyph-name="uni20B5" unicode="&#x20b5;" horiz-adv-x="600" 
d="M356 -8q-93 0 -160.5 43.5t-104.5 125.5t-37 196q0 113 36.5 194.5t104.5 125t161 43.5q55 0 114 -23.5t100 -63.5l-38 -77q-44 39 -88 59t-85 20q-95 0 -147.5 -73t-52.5 -205q0 -133 52.5 -206.5t147.5 -73.5q41 0 85 20t88 59l38 -77q-41 -40 -100 -63.5t-114 -23.5z
M308 -116v944h84v-944h-84z" />
    <glyph glyph-name="cent" unicode="&#xa2;" horiz-adv-x="600" 
d="M337 -7q-75 0 -131 32t-87 90.5t-31 136.5q0 79 32 138t89 92.5t131 33.5q53 0 102 -17t79 -48l-31 -73q-34 28 -70 42t-72 14q-73 0 -114.5 -48t-41.5 -133q0 -86 41 -132.5t115 -46.5q36 0 72 14t70 42l31 -73q-32 -30 -81.5 -47t-102.5 -17zM299 -119v746h84v-746h-84
z" />
    <glyph glyph-name="colonmonetary" unicode="&#x20a1;" horiz-adv-x="600" 
d="M356 -8q-93 0 -160.5 43.5t-104.5 125.5t-37 196q0 113 36.5 194.5t104.5 125t161 43.5q55 0 114 -23.5t100 -63.5l-38 -77q-44 39 -88 59t-85 20q-95 0 -147.5 -73t-52.5 -205q0 -133 52.5 -206.5t147.5 -73.5q41 0 85 20t88 59l38 -77q-41 -40 -100 -63.5t-114 -23.5z
M93 -70l-67 25l97 242l52 -64zM231 -125l-67 26l64 160l70 -17zM313 676l61 152h76l-60 -152h-77zM521 607l-60 42l71 179h77z" />
    <glyph glyph-name="currency" unicode="&#xa4;" horiz-adv-x="600" 
d="M299 -3q-67 0 -122.5 34t-88 90.5t-32.5 125.5q0 70 32.5 126.5t88 90.5t122.5 34q68 0 123 -34t88 -90.5t33 -126.5q0 -69 -33 -125.5t-88 -90.5t-123 -34zM97 -7l-46 46l91 95l45 -49zM500 -7l-90 93l45 48l91 -95zM299 78q44 0 80 23.5t57 61.5t21 84q0 47 -21 85
t-57 61t-80 23t-80 -22.5t-57 -61t-21 -85.5q0 -46 21 -84t57 -61.5t80 -23.5zM131 373l-80 82l47 48l80 -84zM466 370l-49 49l82 84l48 -48z" />
    <glyph glyph-name="dollar" unicode="$" horiz-adv-x="600" 
d="M301 -8q-77 0 -144.5 22.5t-116.5 65.5l37 77q52 -42 105 -61.5t117 -19.5q75 0 116 31t41 87q0 34 -22 54.5t-58 33t-79 23t-86 23.5t-79.5 35t-58 57t-21.5 91q0 61 33 108.5t91 74t133 26.5q46 0 90.5 -10t83 -29.5t67.5 -47.5l-37 -77q-90 80 -204 80
q-70 0 -111.5 -31.5t-41.5 -88.5q0 -38 22 -60.5t58 -36t79.5 -24t86 -23t79 -33t58 -54.5t21.5 -88q0 -61 -33 -107t-91 -72t-135 -26zM268 -116v125l5 49v606l-5 41v123h84v-123l-4 -41v-606l4 -49v-125h-84z" />
    <glyph glyph-name="dong" unicode="&#x20ab;" horiz-adv-x="600" 
d="M258 -7q-59 0 -105.5 31t-73 88.5t-26.5 138.5q0 80 26.5 136.5t72.5 86.5t106 30q57 0 101.5 -31.5t60.5 -88.5l-12 -13v341h102v-712h-101v127l11 -14q-16 -57 -60.5 -88.5t-101.5 -31.5zM72 -144v65h438v-65h-438zM283 75q61 0 93.5 47t32.5 127t-32.5 126.5
t-93.5 46.5q-59 0 -93.5 -45t-34.5 -126q0 -82 35 -129t93 -47zM259 559v65h323v-65h-323z" />
    <glyph glyph-name="Euro" unicode="&#x20ac;" horiz-adv-x="600" 
d="M374 -8q-83 0 -143.5 43t-92 124.5t-31.5 197.5q0 115 31.5 196t92 124t143.5 43q61 0 116.5 -22.5t96.5 -64.5l-37 -77q-43 39 -86 59t-86 20q-84 0 -125.5 -69t-41.5 -209q0 -142 41 -211t126 -69q43 0 86 20t86 59l37 -77q-39 -40 -97 -63.5t-116 -23.5zM15 246v68
h372v-68h-372zM15 399v69h372v-69h-372z" />
    <glyph glyph-name="florin" unicode="&#x192;" horiz-adv-x="600" 
d="M34 -187v82h57q40 0 64.5 22.5t35.5 72.5l118 554q12 61 41 99t69 55.5t88 17.5h58v-81h-57q-39 0 -64 -22.5t-35 -72.5l-118 -554q-13 -61 -41.5 -99.5t-68.5 -56t-89 -17.5h-58zM165 428v67h355v-67h-355z" />
    <glyph glyph-name="franc" unicode="&#x20a3;" horiz-adv-x="600" 
d="M64 0v712h429v-85h-330v-222h190v-86h-190v-319h-99zM340 0v493h92v-137l-11 10q11 50 33 79.5t52 42t68 12.5h15v-85h-9q-51 0 -82 -18t-45.5 -50t-14.5 -73v-274h-98z" />
    <glyph glyph-name="uni20B2" unicode="&#x20b2;" horiz-adv-x="600" 
d="M346 -8q-92 0 -159.5 43.5t-105 125.5t-37.5 196q0 113 37 194.5t104.5 125t160.5 43.5q53 0 112.5 -23t101.5 -64l-37 -77q-45 39 -89 59t-85 20q-93 0 -146 -72t-53 -206q0 -135 53 -208.5t143 -73.5q30 0 67.5 9t72.5 24l-23 -45v237h-137v77h230v-334
q-30 -15 -66 -26.5t-73 -18t-71 -6.5zM298 -116v134h85v-134h-85zM297 694v134h84v-134h-84z" />
    <glyph glyph-name="uni20AD" unicode="&#x20ad;" horiz-adv-x="600" 
d="M15 323v67h539v-67h-539zM477 0l-305 357l305 355h117l-330 -386v62l330 -388h-117zM104 0v712h101v-712h-101z" />
    <glyph glyph-name="lira" unicode="&#x20a4;" horiz-adv-x="600" 
d="M43 246v68h372v-68h-372zM43 399v69h372v-69h-372zM239 517v-286q0 -49 -10.5 -81t-35 -53t-67.5 -35l1 23h439v-85h-523v71q51 24 72 55.5t21 83.5v314q0 60 25.5 104t71.5 68t109 24q66 0 125 -22t105 -65l-38 -77q-44 39 -91.5 59.5t-93.5 20.5q-54 0 -82 -30.5
t-28 -88.5z" />
    <glyph glyph-name="uni20BA" unicode="&#x20ba;" horiz-adv-x="600" 
d="M153 20v692h104v-624q17 -5 35.5 -8t44.5 -3q48 0 97.5 17t100.5 61l38 -77q-50 -45 -113 -65.5t-136 -20.5q-87 0 -171 28zM61 270v79l372 209v-81zM61 437v80l372 207v-79z" />
    <glyph glyph-name="uni20BC" unicode="&#x20bc;" horiz-adv-x="600" 
d="M47 0q0 181 11.5 307t32.5 206.5t52 125.5t71 62.5t87 17.5t87 -18t71 -63t52.5 -126t32.5 -206.5t11 -305.5h-101q0 140 -4.5 242t-13.5 172.5t-21.5 115t-29.5 68t-38 32.5t-46 9t-45.5 -9t-38 -33t-30 -68t-21.5 -114.5t-13.5 -173t-4.5 -241.5h-101zM260 328v330
l-2 33v137h84v-137l-2 -33v-330h-80z" />
    <glyph glyph-name="uni20A6" unicode="&#x20a6;" horiz-adv-x="600" 
d="M105 0v712h85l241 -568l-25 -14v582h89v-712h-85l-241 554l25 27v-581h-89zM15 246v69h134v-69h-134zM15 400v69h134v-69h-134zM444 246v69h142v-69h-142zM444 400v69h142v-69h-142z" />
    <glyph glyph-name="peseta" unicode="&#x20a7;" horiz-adv-x="1200" 
d="M81 0v728h176q75 0 128 -28.5t81.5 -81.5t28.5 -127q0 -73 -29 -126.5t-82.5 -82.5t-126.5 -29h-75v-253h-101zM182 335h72q72 0 108 38.5t36 116.5q0 80 -35 117.5t-109 37.5h-72v-310zM460 426v78h329v-78h-329zM994 -7q-124 0 -203 64l32 73q45 -31 86 -45t86 -13
q50 0 77.5 17.5t27.5 49.5q0 31 -26 47t-99 32q-89 19 -127.5 53t-38.5 91q0 45 25.5 80t70 54.5t100.5 19.5q50 0 98 -17t81 -48l-30 -71q-41 29 -78.5 43t-74.5 14q-43 0 -69.5 -19t-26.5 -52q0 -29 23.5 -44.5t88.5 -31.5q67 -16 106 -34.5t55 -46t16 -68.5
q0 -67 -55 -107.5t-145 -40.5zM557 656h101v-474q0 -54 26 -82.5t78 -28.5q10 0 22.5 1t22.5 2l-4 -77q-27 -4 -53 -4q-100 0 -146.5 49t-46.5 136v478z" />
    <glyph glyph-name="uni20B1" unicode="&#x20b1;" horiz-adv-x="600" 
d="M105 0v712h174q74 0 126 -29t78.5 -81.5t26.5 -121.5t-27 -122t-78.5 -82.5t-125.5 -29.5h-73v-246h-101zM15 368v69h134v-69h-134zM15 521v69h134v-69h-134zM207 328h68q68 0 102.5 36t34.5 115q0 80 -34 115t-103 35h-68v-301zM444 368v69h142v-69h-142zM444 521v69
h142v-69h-142z" />
    <glyph glyph-name="uni20BD" unicode="&#x20bd;" horiz-adv-x="600" 
d="M105 0v712h236q77 0 130 -25.5t81 -71t28 -107.5q0 -64 -28.5 -110t-82 -71t-128.5 -25h-135v-302h-101zM15 149v68h365v-68h-365zM15 302v69h138v-69h-138zM207 371h115q78 0 119 31.5t41 96.5q0 68 -39 100.5t-116 32.5h-120v-261z" />
    <glyph glyph-name="uni20B9" unicode="&#x20b9;" horiz-adv-x="600" 
d="M431 0l-151 228q-23 36 -48.5 51.5t-69.5 15.5h-144v83h216q72 0 111 32.5t39 101.5q0 68 -39 100t-111 32h-83v53h97q74 0 127.5 -19.5t82 -61.5t28.5 -110q0 -65 -29.5 -111t-82.5 -70.5t-124 -24.5l7 11q51 0 83.5 -19.5t61.5 -63.5l152 -228h-123zM18 490v69h564v-69
h-564zM18 644v68h564v-68h-564z" />
    <glyph glyph-name="sterling" unicode="&#xa3;" horiz-adv-x="600" 
d="M43 322v69h372v-69h-372zM239 517v-286q0 -49 -10.5 -81t-35 -53t-67.5 -35l1 23h439v-85h-523v71q51 24 72 55.5t21 83.5v314q0 60 25.5 104t71.5 68t109 24q66 0 125 -22t105 -65l-38 -77q-44 39 -91.5 59.5t-93.5 20.5q-54 0 -82 -30.5t-28 -88.5z" />
    <glyph glyph-name="uni20A9" unicode="&#x20a9;" horiz-adv-x="600" 
d="M149 0l-94 712h82l67 -594h-33l98 594h62l98 -594h-33l67 594h82l-94 -712h-64l-104 606h34l-105 -606h-63zM15 246v69h134v-69h-134zM15 400v69h123v-69h-123zM444 246v69h142v-69h-142zM455 400v69h131v-69h-131z" />
    <glyph glyph-name="yen" unicode="&#xa5;" horiz-adv-x="600" 
d="M248 0v386l22 -75l-283 401h114l211 -305h-24l211 305h114l-284 -401l23 75v-386h-104zM68 172v68h464v-68h-464zM68 325v69h464v-69h-464z" />
    <glyph glyph-name="uni2219" unicode="&#x2219;" horiz-adv-x="600" 
d="M240 329h120v-120h-120v120z" />
    <glyph glyph-name="uni2215" unicode="&#x2215;" horiz-adv-x="600" 
d="M211 -69l-80 26l258 807l81 -26z" />
    <glyph glyph-name="plus" unicode="+" horiz-adv-x="600" 
d="M546 325v-74h-492v74h492zM263 535h74v-493h-74v493z" />
    <glyph glyph-name="minus" unicode="&#x2212;" horiz-adv-x="600" 
d="M546 325v-74h-492v74h492z" />
    <glyph glyph-name="multiply" unicode="&#xd7;" horiz-adv-x="600" 
d="M484 525l52 -53l-420 -419l-52 51zM116 525l420 -421l-52 -51l-420 419z" />
    <glyph glyph-name="divide" unicode="&#xf7;" horiz-adv-x="600" 
d="M243 434v103h102v-103h-102zM243 36v103h102v-103h-102zM546 325v-74h-492v74h492z" />
    <glyph glyph-name="equal" unicode="=" horiz-adv-x="600" 
d="M546 426v-74h-492v74h492zM546 224v-74h-492v74h492z" />
    <glyph glyph-name="notequal" unicode="&#x2260;" horiz-adv-x="600" 
d="M367 561l68 -28l-215 -519l-68 30zM546 426v-74h-492v74h492zM546 224v-74h-492v74h492z" />
    <glyph glyph-name="greater" unicode="&#x3e;" horiz-adv-x="600" 
d="M546 249l-492 -217v82l458 199v-50l-458 199v81l492 -216v-78z" />
    <glyph glyph-name="less" unicode="&#x3c;" horiz-adv-x="600" 
d="M54 249v78l492 216v-81l-458 -199v50l458 -199v-82z" />
    <glyph glyph-name="greaterequal" unicode="&#x2265;" horiz-adv-x="600" 
d="M546 293l-492 -172v80l461 157v-51l-461 157v79l492 -172v-78zM546 75v-75h-492v75h492z" />
    <glyph glyph-name="lessequal" unicode="&#x2264;" horiz-adv-x="600" 
d="M54 293v78l492 172v-79l-461 -157v51l461 -157v-80zM546 75v-75h-492v75h492z" />
    <glyph glyph-name="plusminus" unicode="&#xb1;" horiz-adv-x="600" 
d="M546 369v-74h-492v74h492zM263 535h74v-405h-74v405zM546 75v-75h-492v75h492z" />
    <glyph glyph-name="approxequal" unicode="&#x2248;" horiz-adv-x="592" 
d="M485 450l57 -33q-18 -48 -52.5 -75t-79.5 -27q-33 0 -63.5 11.5t-58 27t-52.5 27.5t-47 12q-32 0 -50.5 -18t-30.5 -48l-58 35q18 47 52.5 74t80.5 27q32 0 62.5 -11.5t58 -26.5t53 -27t47.5 -12q30 0 49.5 18t31.5 46zM485 248l57 -33q-18 -48 -52.5 -75t-79.5 -27
q-33 0 -63.5 11.5t-58 27t-52.5 27.5t-47 12q-32 0 -50.5 -18t-30.5 -48l-58 35q18 47 52.5 74t80.5 27q32 0 62.5 -11.5t58 -26.5t53 -27t47.5 -12q30 0 49.5 18t31.5 46z" />
    <glyph glyph-name="asciitilde" unicode="~" horiz-adv-x="600" 
d="M488 349l58 -33q-18 -48 -52 -75t-80 -27q-33 0 -63.5 11.5t-58.5 27t-52.5 27.5t-46.5 12q-32 0 -51 -18t-30 -48l-58 35q18 47 52 74t80 27q33 0 63.5 -11.5t58.5 -26.5t52.5 -27t46.5 -12q32 0 51 18t30 46z" />
    <glyph glyph-name="logicalnot" unicode="&#xac;" horiz-adv-x="600" 
d="M546 429v-282h-74v208h-418v74h492z" />
    <glyph glyph-name="asciicircum" unicode="^" horiz-adv-x="600" 
d="M339 636l217 -493h-82l-199 457h50l-199 -457h-81l216 493h78z" />
    <glyph glyph-name="emptyset" unicode="&#x2205;" horiz-adv-x="600" 
d="M25 10l79 103q-46 39 -74.5 94t-28.5 121q0 57 22.5 108.5t63 92t95.5 63.5t119 23q43 0 83 -11t75 -33l78 103l49 -38l-79 -101q42 -38 67 -91.5t25 -115.5q0 -58 -23 -109.5t-64.5 -91t-95 -61.5t-115.5 -22q-40 0 -77 9.5t-69 27.5l-79 -103zM143 163l276 357
q-25 14 -55 22.5t-63 8.5q-64 0 -116.5 -29t-82.5 -79.5t-30 -114.5q0 -49 19 -91.5t52 -73.5zM301 104q61 0 113.5 28.5t83.5 79t31 116.5q0 46 -16 85.5t-45 70.5l-275 -355q23 -12 50.5 -18.5t57.5 -6.5z" />
    <glyph glyph-name="infinity" unicode="&#x221e;" horiz-adv-x="600" 
d="M37 287q0 65 36.5 107.5t101.5 42.5q25 0 51.5 -10.5t49.5 -35t38 -66.5v-76q-15 -42 -38 -66.5t-49.5 -35t-51.5 -10.5q-64 0 -101 41.5t-37 108.5zM106 287q0 -37 18.5 -61.5t54.5 -24.5q16 0 32.5 7t32.5 26t29 54q-13 34 -29 52.5t-32.5 25.5t-32.5 7
q-36 0 -54.5 -25t-18.5 -61zM563 287q0 -67 -37 -108.5t-101 -41.5q-25 0 -51.5 10.5t-49.5 35t-38 66.5v76q15 42 38 66.5t49.5 35t51.5 10.5q65 0 101.5 -42.5t36.5 -107.5zM494 287q0 36 -18.5 61t-54.5 25q-16 0 -32.5 -7t-32.5 -25.5t-29 -52.5q13 -35 29 -54t32.5 -26
t32.5 -7q36 0 54.5 24.5t18.5 61.5z" />
    <glyph glyph-name="integral" unicode="&#x222b;" horiz-adv-x="600" 
d="M408 720q18 0 36 -2.5t35 -7.5v-82q-15 4 -26 5.5t-22 1.5q-33 0 -56.5 -19.5t-23.5 -73.5v-559q0 -83 -42.5 -126.5t-116.5 -43.5q-18 0 -36 2t-35 8v83q15 -4 26 -6t22 -2q22 0 40 8.5t29 28.5t11 56v559q0 83 42.5 126.5t116.5 43.5z" />
    <glyph glyph-name="uni2126" unicode="&#x2126;" horiz-adv-x="796" 
d="M398 721q105 0 182.5 -38t119.5 -107t42 -162q0 -98 -52.5 -186.5t-159.5 -173.5l11 31h192v-85h-271v82q87 79 131 162t44 167q0 107 -63.5 166t-175.5 59q-113 0 -176 -59t-63 -166q0 -85 44.5 -167t131.5 -162v-82h-272v85h192l12 -31q-109 85 -161.5 173.5
t-52.5 186.5q0 93 43 162t120 107t182 38z" />
    <glyph glyph-name="uni2206" unicode="&#x2206;" horiz-adv-x="796" 
d="M398 721q105 0 182.5 -38t119.5 -107t42 -162q0 -98 -52.5 -186.5t-159.5 -173.5l11 31h192v-85h-271v82q87 79 131 162t44 167q0 107 -63.5 166t-175.5 59q-113 0 -176 -59t-63 -166q0 -85 44.5 -167t131.5 -162v-82h-272v85h192l12 -31q-109 85 -161.5 173.5
t-52.5 186.5q0 93 43 162t120 107t182 38z" />
    <glyph glyph-name="product" unicode="&#x220f;" horiz-adv-x="600" 
d="M546 712v-894h-94v809h-304v-809h-94v894h492z" />
    <glyph glyph-name="summation" unicode="&#x2211;" horiz-adv-x="595" 
d="M551 -96v-86h-509v76l287 408v-74l-287 409v75h509v-85h-418v43l261 -370v-69l-261 -371v44h418z" />
    <glyph glyph-name="radical" unicode="&#x221a;" horiz-adv-x="600" 
d="M582 766l-259 -968h-79l-143 453h-98v74h156l123 -401l220 842h80z" />
    <glyph glyph-name="uni00B5" unicode="&#xb5;" horiz-adv-x="585" 
d="M512 504v-504h-98v107l12 4q-21 -58 -67 -88t-106 -30q-35 0 -60.5 9.5t-45.5 27.5l24 33v-279h-101v720h101v-308q0 -62 25.5 -91.5t78.5 -29.5q61 0 98.5 40t37.5 106v283h101z" />
    <glyph glyph-name="partialdiff" unicode="&#x2202;" horiz-adv-x="600" 
d="M292 -16q-72 1 -128.5 32.5t-88.5 91.5t-32 144q0 85 32 145t85 92.5t119 32.5q55 0 100.5 -24t73.5 -82l-12 1q-5 76 -26.5 129t-56 85.5t-78 46.5t-93.5 14h-43v77q20 2 36.5 3.5t36.5 1.5q53 0 101.5 -15t90 -48t72.5 -85t48.5 -126t17.5 -171q0 -119 -32 -195.5
t-89 -113t-134 -36.5zM292 67q65 0 106.5 51t41.5 145q0 56 -20 95.5t-53.5 59.5t-73.5 20q-41 0 -75 -21.5t-53.5 -63t-19.5 -100.5t19 -100.5t52.5 -63.5t75.5 -22z" />
    <glyph glyph-name="percent" unicode="%" horiz-adv-x="859" 
d="M190 281q-75 0 -118.5 54.5t-43.5 163.5q0 110 43.5 163.5t118.5 53.5t118 -53.5t43 -163.5q0 -109 -43 -163.5t-118 -54.5zM190 350q37 0 55 35t18 114q0 78 -18 113t-55 35t-55 -35t-18 -113q0 -79 18 -114t55 -35zM175 0l413 712h96l-411 -712h-98zM669 -4
q-75 0 -118.5 54.5t-43.5 163.5q0 110 43.5 163.5t118.5 53.5t118 -53.5t43 -163.5q0 -109 -43 -163.5t-118 -54.5zM669 65q37 0 55 35t18 114q0 78 -18 113t-55 35t-55 -35t-18 -113q0 -79 18 -114t55 -35z" />
    <glyph glyph-name="perthousand" unicode="&#x2030;" horiz-adv-x="1239" 
d="M190 281q-75 0 -118.5 54.5t-43.5 163.5q0 110 43.5 163.5t118.5 53.5t118 -53.5t43 -163.5q0 -109 -43 -163.5t-118 -54.5zM190 350q37 0 55 35t18 114q0 78 -18 113t-55 35t-55 -35t-18 -113q0 -79 18 -114t55 -35zM175 0l413 712h96l-411 -712h-98zM669 -4
q-75 0 -118.5 54.5t-43.5 163.5q0 110 43.5 163.5t118.5 53.5t118 -53.5t43 -163.5q0 -109 -43 -163.5t-118 -54.5zM669 65q37 0 55 35t18 114q0 78 -18 113t-55 35t-55 -35t-18 -113q0 -79 18 -114t55 -35zM1049 -4q-75 0 -118.5 54.5t-43.5 163.5q0 110 43.5 163.5
t118.5 53.5t118 -53.5t43 -163.5q0 -109 -43 -163.5t-118 -54.5zM1049 65q37 0 55 35t18 114q0 78 -18 113t-55 35t-55 -35t-18 -113q0 -79 18 -114t55 -35z" />
    <glyph glyph-name="lozenge" unicode="&#x25ca;" horiz-adv-x="606" 
d="M559 282l-217 -484h-78l-216 484l216 484h78zM477 282l-174 390l-174 -390l174 -391z" />
    <glyph glyph-name="uniF8FF" unicode="&#xf8ff;" horiz-adv-x="665" 
d="M138 1l71 226l-192 146h239l74 226l78 -226h239l-192 -146l71 -226l-196 136zM264 200h28v87l-5 -2l34 -64h23l35 64l-5 2v-87h28v131h-27l-45 -86h7l-46 86h-27v-131z" />
    <glyph glyph-name="at" unicode="@" horiz-adv-x="939" 
d="M480 -155q-134 0 -231 54t-149.5 150.5t-52.5 224.5q0 102 32.5 184.5t91.5 140.5t138 88.5t171 30.5q102 0 179 -31t129 -83.5t78 -119.5t26 -138q0 -76 -17.5 -129.5t-47 -87t-65.5 -49t-75 -15.5q-55 0 -86 23.5t-35 64.5h-2q-24 -38 -61 -63t-91 -25q-68 0 -109 47
t-41 130q0 52 15 99.5t43 84t67 57.5t87 21q46 0 80.5 -21t45.5 -56h1l12 66h78l-46 -264q-9 -55 4.5 -78t51.5 -23q17 0 37 11t38 36t29.5 67t11.5 104q0 59 -20.5 113t-62 97t-105 67.5t-149.5 24.5q-75 0 -140 -25t-113 -73.5t-75 -118t-27 -157.5q0 -109 42.5 -190
t122 -125.5t190.5 -44.5q84 0 143 23t89 63h103q-40 -70 -126.5 -112.5t-208.5 -42.5zM429 128q50 0 84.5 30t51.5 76t17 95q0 55 -26.5 82.5t-70.5 27.5q-47 0 -79.5 -29t-49.5 -74t-17 -91q0 -57 26.5 -87t63.5 -30z" />
    <glyph glyph-name="ampersand" unicode="&#x26;" horiz-adv-x="678" 
d="M283 -7q-71 0 -124 24t-82.5 66t-29.5 99q0 69 43.5 123t141.5 106q61 34 96 59.5t49 48t14 47.5q0 36 -22 58t-58 22q-41 0 -66 -24t-25 -63q0 -19 6.5 -36.5t23 -39.5t47.5 -56l244 -266q30 -32 67.5 -57t84.5 -44l-52 -69q-51 21 -90.5 48t-69.5 59l-268 290
q-32 36 -51.5 64t-28 53.5t-8.5 52.5q0 49 23.5 85t65 56t95.5 20q77 0 122.5 -40t45.5 -108q0 -41 -19 -76t-62 -69t-115 -73q-48 -27 -78 -53t-43.5 -53t-13.5 -60q0 -53 38 -83.5t102 -30.5q72 0 128 44t89.5 122.5t36.5 183.5h87q-3 -96 -30 -175t-73 -136t-107 -88
t-134 -31z" />
    <glyph glyph-name="paragraph" unicode="&#xb6;" horiz-adv-x="602" 
d="M519 712v-894h-78v825h-116v-825h-77v482q-63 0 -109 26.5t-71.5 73t-25.5 107.5q0 60 25.5 106.5t72.5 72.5t110 26h269z" />
    <glyph glyph-name="section" unicode="&#xa7;" horiz-adv-x="554" 
d="M422 50l-41 53q19 15 30 39t11 48q0 33 -23 60.5t-76 54.5l-105 54q-50 25 -80 51.5t-44.5 58t-14.5 69.5q0 83 56.5 132t152.5 49q52 0 100 -16.5t82 -46.5l-30 -71q-37 28 -73.5 41.5t-73.5 13.5q-55 0 -85 -24.5t-30 -71.5q0 -35 19 -59.5t65 -46.5l106 -51
q79 -39 113.5 -81.5t34.5 -101.5q0 -47 -25.5 -88t-68.5 -66zM265 -189q-61 0 -112 16t-91 48l31 73q42 -30 83.5 -43.5t87.5 -13.5q52 0 82 24.5t30 70.5q0 36 -19 60t-64 47l-107 51q-80 37 -114 79.5t-34 102.5q0 46 23 86t62 65l46 -53q-18 -16 -28 -38.5t-10 -45.5
q0 -33 23.5 -59.5t76.5 -55.5l106 -52q49 -25 79.5 -52t44.5 -58.5t14 -70.5q0 -85 -55.5 -133t-154.5 -48z" />
    <glyph glyph-name="copyright" unicode="&#xa9;" horiz-adv-x="823" 
d="M412 -5q-77 0 -142.5 27.5t-114.5 77t-76.5 115.5t-27.5 142q0 77 27.5 142.5t76.5 114t114.5 76t142.5 27.5t142.5 -27.5t114.5 -76t76.5 -114t27.5 -142.5q0 -76 -27.5 -142t-76.5 -115.5t-114.5 -77t-142.5 -27.5zM412 45q66 0 122 23.5t98 66t65 99.5t23 123
t-23 122.5t-65 98.5t-98 65.5t-122 23.5t-122.5 -23.5t-98.5 -65.5t-65 -98.5t-23 -122.5t23 -123t65 -99.5t98.5 -66t122.5 -23.5zM422 138q-97 0 -153 59t-56 160q0 66 25.5 115t72.5 75.5t111 26.5q44 0 84 -14t68 -39l-26 -65q-26 20 -55 32t-61 12q-60 0 -92.5 -37
t-32.5 -106q0 -70 32.5 -107.5t92.5 -37.5q32 0 61 12t55 32l26 -65q-28 -25 -68 -39t-84 -14z" />
    <glyph glyph-name="registered" unicode="&#xae;" horiz-adv-x="823" 
d="M412 -5q-77 0 -142.5 27.5t-114.5 77t-76.5 115.5t-27.5 142q0 77 27.5 142.5t76.5 114t114.5 76t142.5 27.5t142.5 -27.5t114.5 -76t76.5 -114t27.5 -142.5q0 -76 -27.5 -142t-76.5 -115.5t-114.5 -77t-142.5 -27.5zM412 45q66 0 122 23.5t98 66t65 99.5t23 123
t-23 122.5t-65 98.5t-98 65.5t-122 23.5t-122.5 -23.5t-98.5 -65.5t-65 -98.5t-23 -122.5t23 -123t65 -99.5t98.5 -66t122.5 -23.5zM254 143v427h185q74 0 113 -35t39 -94q0 -58 -39 -93t-109 -35l18 6q27 0 48 -11.5t37 -38.5l72 -126h-102l-76 137q-10 16 -21 22.5
t-30 6.5h-44v-166h-91zM344 377h84q38 0 56 14t18 46q0 33 -18 47.5t-56 14.5h-84v-122z" />
    <glyph glyph-name="trademark" unicode="&#x2122;" horiz-adv-x="932" 
d="M143 287v349h-133v76h360v-76h-133v-349h-94zM433 287v425h74l148 -284h-20l149 284h71v-425h-81v291l16 -2l-115 -219h-60l-117 219l18 2v-291h-83z" />
    <glyph glyph-name="degree" unicode="&#xb0;" horiz-adv-x="370" 
d="M185 421q-42 0 -76 19t-54 53t-20 76q0 43 20 76.5t54 52.5t76 19t75.5 -19t53.5 -52.5t20 -76.5q0 -42 -20 -76t-53.5 -53t-75.5 -19zM185 481q36 0 60.5 25t24.5 63t-24.5 63t-60.5 25q-37 0 -61 -25t-24 -63t24 -63t61 -25z" />
    </font>
</defs>
</svg>
